Доктор Стрэндж

Лицензия

Добыча

Дубляж

Уэнсдэй

1 сезон

Тор

Дубляж

В эфире

Дубляж

Там, где раки поют

MVO

Властелин колец

1 сезон

Deluxe

pack

Рекомендуем

30

Пиратка

ВАЖНО

ВАЖНО

Ghostwire

Пиратка

jed

RePack

nioh2

RePack

RDR2

RePack

NEED FOR SPEED™ PAYBACK

RePack

скачать торрент

Кинопоиск HD

Острые козырьки 6 сезон

6 сезон

FAR CRY 6

RePack

скачать торрент

Лицензия

скачать торрент

MVO

1

1 сезон

скачать торрент

1 сезон

скачать торрент

Лицензия

  

Жандарм на отдыхе / The Gendarme Takes Off / Le gendarme en balade (Жан Жиро / Jean Girault) [1970, Франция, Италия, комедия, HDRip-AVC] 3xMVO

Жандарм на отдыхе через торрент 5050.piratbit.fun

Размер: 1.45 GB | Добавлен: 9 лет 4 мес. назад | Торрент скачан:155 раз
Смотреть онлайн | Скачать   

10-07-2013 08:10 Жандарм на отдыхе Скачать торрент  

Жандарм на отдыхе / The Gendarme Takes Off / Le gendarme en balade
Год выпуска: 1970
Страна: Франция, Италия
Жанр: комедия
Продолжительность: 01:40:21
Перевод: Профессиональный (многоголосый, закадровый) РенТВ + Профессиональный (многоголосый, закадровый) НТВ + Профессиональный (многоголосый, закадровый) Останкино
Cубтитры: нет
Оригинальная аудиодорожка: нет

Режиссер:
Жан Жиро / Jean Girault

В ролях: Луи де Фюнес, Мишель Галабрю, Жан Лефевр, Ги Гроссо, Мишель Модо, Николь Вервиль, Франс Румилли, Ив Венсан, Кристиан Марен, Клоди Жансак

Описание: Всему приходит конец. Начальство сочло наших героев слишком старыми и отправило их на заслуженный отдых. Это трагический момент в жизни такого мужественного офицера как сержант Крюшо.
Запершись в роскошном замке своей жены, он предается унынию. Приезд бывшего начальника Жербера выводит его из спячки. Они собирают своих подчиненных, надевают любимую жандармскую форму и отправляются навстречу новым подвигам.

Качество: HDRip-AVC
Формат: MKV
Видео кодек: H264
Аудио кодек: AC3
Видео: 960x408 (2:35:1), 24.000 fps, H264, 1 497 Kbps, 0.159 bit/pixel
Аудио #1: 48 kHz, AC3 Dolby Digital, 2/0 (L,R) ch, ~192.00 kbps avg | РенТв
Аудио #2: 48 kHz, AC3 Dolby Digital, 2/0 (L,R) ch, ~192.00 kbps avg | НТВ+
Аудио #3: 48 kHz, AC3 Dolby Digital, 2/0 (L,R) ch, ~192.00 kbps avg | Останкино
Раздача от:
D:Le.gendarme.en.balade.1970.HDRip-AVC.3xMVO.by_dexter_lex.mkv
General
Unique ID : 251469797301143470005048297020929471202 (0xBD2F523EF4A18FA59668E1506DE9F2E2)
Complete name : D:Le.gendarme.en.balade.1970.HDRip-AVC.3xMVO.by_dexter_lex.mkv
Format : Matroska
Format version : Version 4 / Version 2
File size : 1.45 GiB
Duration : 1h 40mn
Overall bit rate : 2 075 Kbps
Encoded date : UTC 2013-07-10 04:46:44
Writing application : mkvmerge v6.3.0 ('You can't stop me!') built on Jun 28 2013 20:09:41
Writing library : libebml v1.3.0 + libmatroska v1.4.0
Video #1
ID : 1
Format : AVC
Format/Info : Advanced Video Codec
Format profile : [email protected]
Format settings, CABAC : Yes
Format settings, ReFrames : 9 frames
Codec ID : V_MPEG4/ISO/AVC
Duration : 1h 40mn
Bit rate : 1 497 Kbps
Width : 960 pixels
Height : 408 pixels
Display aspect ratio : 2.35:1
Frame rate : 24.000 fps
Color space : YUV
Chroma subsampling : 4:2:0
Bit depth : 8 bits
Scan type : Progressive
Bits/(Pixel*Frame) : 0.159
Stream size : 1.02 GiB (70%)
Writing library : x264 core 125 r2200 999b753
Encoding settings : cabac=1 / ref=9 / deblock=1:-2:-2 / analyse=0x3:0x113 / me=umh / subme=9 / psy=1 / psy_rd=1.00:0.15 / mixed_ref=1 / me_range=32 / chroma_me=1 / trellis=1 / 8x8dct=1 / cqm=0 / deadzone=21,11 / fast_pskip=0 / chroma_qp_offset=-3 / threads=6 / lookahead_threads=1 / sliced_threads=0 / nr=0 / decimate=1 / interlaced=0 / bluray_compat=0 / constrained_intra=0 / bframes=9 / b_pyramid=2 / b_adapt=1 / b_bias=0 / direct=3 / weightb=1 / open_gop=0 / weightp=2 / keyint=240 / keyint_min=24 / scenecut=40 / intra_refresh=0 / rc_lookahead=60 / rc=2pass / mbtree=1 / bitrate=1497 / ratetol=1.0 / qcomp=0.60 / qpmin=0 / qpmax=69 / qpstep=4 / cplxblur=20.0 / qblur=0.5 / ip_ratio=1.40 / aq=1:1.00
Language : English
Default : Yes
Forced : No
Audio #2
ID : 2
Format : AC-3
Format/Info : Audio Coding 3
Format profile : Dolby Digital
Mode extension : CM (complete main)
Codec ID : A_AC3
Duration : 1h 40mn
Bit rate mode : Constant
Bit rate : 192 Kbps
Channel(s) : 2 channels
Channel positions : Front: L R
Sampling rate : 48.0 KHz
Bit depth : 16 bits
Compression mode : Lossy
Stream size : 138 MiB (9%)
Title : РенТВ
Language : Russian
Default : Yes
Forced : No
Audio #3
ID : 3
Format : AC-3
Format/Info : Audio Coding 3
Format profile : Dolby Digital
Mode extension : CM (complete main)
Codec ID : A_AC3
Duration : 1h 40mn
Bit rate mode : Constant
Bit rate : 192 Kbps
Channel(s) : 2 channels
Channel positions : Front: L R
Sampling rate : 48.0 KHz
Bit depth : 16 bits
Compression mode : Lossy
Stream size : 138 MiB (9%)
Title : НТВ+
Language : Russian
Default : No
Forced : No
Audio #4
ID : 4
Format : AC-3
Format/Info : Audio Coding 3
Format profile : Dolby Digital
Mode extension : CM (complete main)
Codec ID : A_AC3
Duration : 1h 40mn
Bit rate mode : Constant
Bit rate : 192 Kbps
Channel(s) : 2 channels
Channel positions : Front: L R
Sampling rate : 48.0 KHz
Bit depth : 16 bits
Compression mode : Lossy
Stream size : 138 MiB (9%)
Title : Останкино
Language : Russian
Default : No
Forced : No



Скачать Жандарм на отдыхе через торрент http://lostpic.net/orig_images/b/9/4/b94f78f3c13c940a12f67ef146aaffab.png Скачать, смотреть онлайн Жандарм на отдыхе бесплантно в хорошем качестве Описание: Всему приходит конец. Начальство сочло наших героев слишком старыми и отправило их на заслуженный отдых. Это трагический момент в ... 9.8 10 14
Info! Золотая раздача, скачанное не засчитывается.
Торрент: Зарегистрирован [2013-07-10 08:10] · скачан: 155 раз
Статус: √ проверено
Размер: 1.45 GB
Как cкачать? Как скачать Жандарм на отдыхе через торрент | UTorrent

28-11-2019 20:33  


Отключить вcю реклaмy на сайте, в т.ч. и в плеере онлайн просмотра!

    Дорогой пользователь! Огромная просьба, поблагодарите релизера, оцените раздачу и оставьте свои комментарий, если Вы скачали Жандарм на отдыхе через торрент бесплатно!!
    Комментировать посты могут только пользователи прошедшие не сложную регистрацию
    Показать сообщения:    


    Жандарм на отдыхе через торрент
    Скачать бесплатно Жандарм на отдыхе
    Жандарм на отдыхе скачать торрент
    Жандарм на отдыхе смотреть онлайн
    Cкачать фильм Жандарм на отдыхе бесплатно
    Жандарм на отдыхе скачать торрент в хорошем качестве
    Жандарм на отдыхе смотреть онлайн бесплатно в хорошем качестве
    Вы не можете начинать темы
    Вы не можете отвечать на сообщения
    Вы не можете редактировать свои сообщения
    Вы не можете удалять свои сообщения
    Вы не можете голосовать в опросах
    Вы не можете прикреплять файлы к сообщениям
    Вы можете скачивать файлы
    Жандарм на отдыхе / The Gendarme Takes Off / Le gendarme en balade [1970, Франция, Италия, комедия, HDRip-AVC] 3xMVO смотреть онлайн, скачать торрент picoco.icu