Доктор Стрэндж

Лицензия

Добыча

Дубляж

Дом дракона

1 сезон

Тор

Дубляж

В эфире

Дубляж

Там, где раки поют

MVO

Властелин колец

1 сезон

Ultimate

pack

Рекомендуем

30

Пиратка

ВАЖНО

ВАЖНО

Ghostwire

Пиратка

jed

RePack

nioh2

RePack

RDR2

RePack

NEED FOR SPEED™ PAYBACK

RePack

скачать торрент

Кинопоиск HD

Острые козырьки 6 сезон

6 сезон

FAR CRY 6

RePack

скачать торрент

Лицензия

скачать торрент

MVO

1

1 сезон

скачать торрент

1 сезон

скачать торрент

Лицензия

  

Три орешка для Золушки / Tri oresky pro Popelku (Вацлав Ворличек) [1973 г., фэнтези, драма, мелодрама, приключения, семейный, HDTVRip, Дубляж, лицензия]

Три орешка для Золушки через торрент 5050.piratbit.fun

Размер: 3.32 GB | Добавлен: 9 лет 3 мес. назад | Торрент скачан:114 раз
Смотреть онлайн | Скачать   

18-08-2013 09:45 Три орешка для Золушки Скачать торрент  

Три орешка для Золушки / Tri oresky pro Popelkur]font]
Год выпуска: 1973
Страна: Чехословакия, Германия (ГДР)
Жанр: фэнтези, драма, мелодрама, приключения, семейный,
Продолжительность: 01.22
Перевод: Дубляж, Лицензия
Субтитры: нет

Режиссер: Вацлав Ворличек
Сценарий: Франтишек Павличек, Божена Немцова

В ролях: Либуше Шафранкова, Павел Травничек, Карола Браунбок, Рольф Хоппе, Карин Леш, Дана Главачова,

Описание: Мачеха Золушки всеми силами хочет выдать свою глупую и злую родную дочь замуж за принца. Но тому совсем не хочется жениться, он ссорится с отцом и собирается покинуть дворец, но… в последний момент он влюбляется в очаровательную незнакомку в маске, которая быстро исчезает. Принц и не догадывается, что эта прекрасная девушка, ловкий стрелок, которого он встретил в лесу и озорная девчонка — одно и то же лицо. Все эти превращения оказались возможными благодаря волшебным орешкам, в одном из которых находился и свадебный подарок для Золушки.

Доп. информация: В конце 2010 года фильм был полностью отреставрирован — был произведён рескан плёнки, устранение дефектов (царапин), осуществлён перевод в формат Full HD, обновлено качество звука. После реставрации фильм был выпущен на Blu-ray Disc, в одной из версий издания которого был размещён ранее утерянный советский дубляж. Данная версия фильма была показана 31 декабря 2010 года на украинском телеканале «ICTV»

Качество: HDTVRip
Формат: MPEG-4
Видео кодек: AVC
Аудио кодек: AAC
Видео: 1920X1080, 5630kbps, 25fps
Аудио: 152kbps; 2ch; 44,1kHz
Общее
Полное имя : D:загрузкимои загрузкиtri oreskaТри Орешка Для Золушки HD 1973.mp4
Формат : MPEG-4
Профиль формата : Base Media / Version 2
Идентификатор кодека : mp42
Размер файла : 3,32 Гбайт
Продолжительность : 1 ч. 22 м.
Режим общего битрейта : Переменный
Общий поток : 5785 Кбит/сек
Дата кодирования : UTC 2012-01-08 08:18:30
Дата пометки : UTC 2012-01-08 08:18:30
gsst : 0
gstd : 4937071
gssd : B4A7D6F28HH1376814309501656
gshh : r8---sn-n8v7sn7r.c.youtube.com

Видео
Идентификатор : 1
Формат : AVC
Формат/Информация : Advanced Video Codec
Профиль формата : [email protected]
Параметр CABAC формата : Да
Параметр ReFrames формата : 1 кадр
Параметр GOP формата : M=1, N=25
Идентификатор кодека : avc1
Идентификатор кодека/Информация : Advanced Video Coding
Продолжительность : 1 ч. 22 м.
Битрейт : 5630 Кбит/сек
Максимальный битрейт : 13,8 Мбит/сек
Ширина : 1920 пикселей
Высота : 1080 пикселей
Соотношение сторон : 16:9
Режим частоты кадров : Постоянный
Частота кадров : 25,000 кадров/сек
Цветовое пространство : YUV
Субдискретизация насыщенности : 4:2:0
Битовая глубина : 8 бит
Тип развёртки : Прогрессивная
Бит/(Пиксели*Кадры) : 0.109
Размер потока : 3,24 Гбайт (97%)
Дата пометки : UTC 2012-01-08 08:20:59

Аудио
Идентификатор : 2
Формат : AAC
Формат/Информация : Advanced Audio Codec
Профиль формата : LC
Идентификатор кодека : 40
Продолжительность : 1 ч. 22 м.
Вид битрейта : Переменный
Битрейт : 152 Кбит/сек
Максимальный битрейт : 189 Кбит/сек
Каналы : 2 канала
Расположение каналов : Front: L R
Частота : 44,1 КГц
Метод сжатия : С потерями
Размер потока : 89,4 Мбайт (3%)
Заголовок : IsoMedia File Produced by Google, 5-11-2011
Дата кодирования : UTC 2012-01-08 08:20:13
Дата пометки : UTC 2012-01-08 08:20:59

Релиз от: n1alex





Скачать Три орешка для Золушки через торрент https://pic1.kartinco.top/images/23/y9pp729dg5.jpg Скачать, смотреть онлайн Три орешка для Золушки бесплантно в хорошем качестве Описание: Мачеха Золушки всеми силами хочет выдать свою глупую и злую родную дочь замуж за принца. Но тому совсем не хочется жениться, он ... 10 10 11
Info! Золотая раздача, скачанное не засчитывается.
Торрент: Зарегистрирован [2013-08-18 09:45] · скачан: 114 раз
Статус: √ проверено
Размер: 3.32 GB
Как cкачать? Как скачать Три орешка для Золушки через торрент | UTorrent

% Раздел Тема Автор DL S | L
Фильмы до 2000 г. [ 1.57 GB ] Три орешка для Золушки / Tri orísky pro Popelku | DUB + MVO + Original + sub | BDRip tserkovnye Скачать
1 | 0



Последний раз редактировалось: n1alex (2013-08-18 17:59), всего редактировалось 4 раз(а)

28-11-2019 20:33  


Отключить вcю реклaмy на сайте, в т.ч. и в плеере онлайн просмотра!

18-08-2013 16:12 Три орешка для Золушки Скачать торрент  

Скриншоты не заявленного размера Видео.


http://pb.wtf/topic/23279/

Как сделать скриншот?



21-01-2018 16:35 Три орешка для Золушки Скачать торрент  

Удалил давно фильм, сори попробуйте скачать здесь http://anti-tor.org/search/Три%20Орешка%20Для%20Золушки



    Дорогой пользователь! Огромная просьба, поблагодарите релизера, оцените раздачу и оставьте свои комментарий, если Вы скачали Три орешка для Золушки через торрент бесплатно!!
    Комментировать посты могут только пользователи прошедшие не сложную регистрацию
    Показать сообщения:    


    Три орешка для Золушки через торрент
    Скачать бесплатно Три орешка для Золушки
    Три орешка для Золушки скачать торрент
    Три орешка для Золушки смотреть онлайн
    Cкачать фильм Три орешка для Золушки бесплатно
    Три орешка для Золушки скачать торрент в хорошем качестве
    Три орешка для Золушки смотреть онлайн бесплатно в хорошем качестве
    Вы не можете начинать темы
    Вы не можете отвечать на сообщения
    Вы не можете редактировать свои сообщения
    Вы не можете удалять свои сообщения
    Вы не можете голосовать в опросах
    Вы не можете прикреплять файлы к сообщениям
    Вы можете скачивать файлы
    Три орешка для Золушки / Tri oresky pro Popelku [1973 г., фэнтези, драма, мелодрама, приключения, семейный, HDTVRip, Дубляж, лицензия] смотреть онлайн, скачать торрент picoco.icu