Доктор Стрэндж

Лицензия

Добыча

Дубляж

Дом дракона

1 сезон

Тор

Дубляж

В эфире

Дубляж

Там, где раки поют

MVO

Властелин колец

1 сезон

Ultimate

pack

Рекомендуем

30

Пиратка

ВАЖНО

ВАЖНО

Ghostwire

Пиратка

jed

RePack

nioh2

RePack

RDR2

RePack

NEED FOR SPEED™ PAYBACK

RePack

скачать торрент

Кинопоиск HD

Острые козырьки 6 сезон

6 сезон

FAR CRY 6

RePack

скачать торрент

Лицензия

скачать торрент

MVO

1

1 сезон

скачать торрент

1 сезон

скачать торрент

Лицензия

  

Кэрри / Carrie (Брайан Де Пальма / Brian De Palma) [1976, ужасы, мистика, драма, HDRip] [MVO] (Варус Видео)

Кэрри через торрент 5050.piratbit.fun

Размер: 1.46 GB | Добавлен: 8 лет 10 мес. назад | Торрент скачан:167 раз
Смотреть онлайн | Скачать   

04-01-2014 10:58 Кэрри Скачать торрент  

Кэрри / Carrie
Год выпуска: 1976
Страна: США
Жанр: ужасы, мистика, драма
Продолжительность: 01:38:10
Перевод: Профессиональный (многоголосый закадровый)[Варус Видео]
Cубтитры: нет

Режиссер: Брайан Де Пальма / Brian De Palma

В ролях: Сисси Спейсек, Пайпер Лори, Джон Траволта, Эми Ирвинг, Уильям Кэтт, Бетти Бакли, Нэнси Аллен, и др.

Описание: Тихую, робкую и доверчивую Кэрри третируют и обижают в школе и дома. Ребенок, от природы добрый, становится замкнутым и мрачным. В то же время девочка открывает в себе странные и страшные силы… А сверстники готовят очередную изощренную шутку над Кэрри, даже не подозревая, чем это для них закончится…



Качество видео: HDRip [Исх.BDRip 720p]
Формат видео: AVI
Видео кодек: XviD
Аудио кодек: AC3
Видео: 704x384, 23.976 fps, XviD build 64 ~1929 kbps avg, 0.298 bit/pixel
Аудио: 48 kHz, AC3 Dolby Digital, 2/0 (L,R) ch, ~192 kbps [Варус Видео] VHSRip
Оскар, 1977 год:
Лучшая женская роль (Сисси Спейсек)
Лучшая женская роль второго плана (Пайпер Лори)

>>>
Золотой глобус, 1977 год:
Номинации (1):
Лучшая женская роль второго плана (Пайпер Лори)

>>>
Сатурн, 1977 год:
Номинации (1):
Лучший фильм ужасов
Этот фильм — самая первая и одна из лучших экранизаций произведений популярного автора Стивена Кинга, которого слишком часто, но всё-таки реже удачно переводят на язык кино. Кстати, он сам высоко оценивал (считая, что потом смог не без пользы для себя воспринять режиссёрский вкус к своеобразному «чёрному юмору») ленту Брайана Де Пальмы, в свою очередь, очень показательную для творчества данного постановщика.
Кэрри, застенчивая ученица колледжа, обуреваемая различными комплексами и в пуританском духе воспитанная матерью, религиозной фанатичкой, становится объектом злой шутки своих одноклассников. Но в оскорблённой девушке неожиданно проявляются телекинетические способности — и она в порыве мести устраивает во время выпускного бала настоящий ад в провинциальном городке.

Де Пальма ещё прежде прославился не одним лишь умением изобретательно пугать зрителей, добиваясь порой шокового эффекта. Подчас настойчиво называемый «наследником Хичкока», он на самом деле смог перенять главное у классика жанров триллера и саспенса — вкус к чисто кинематографическому воплощению состояний страха, наваждения, ярости. Вертикальные и горизонтальные панорамы камеры в момент торжественного вечера, когда готовится «кровавая акция» против Кэрри, создают тревожное ощущение: должно произойти нечто ужасное. А настоящее неистовство героини в финале выражено с помощью впечатляющих спецэффектов, что позволило, например, французским кинопрокатчикам назвать эту картину «Кэрри, бал дьявола». Остроумный, вызывающий истошный вопль неискушённых зрителей последний кадр фильма также имеет философско-нравственную, возможно, морализаторскую подоплёку: нельзя избавиться от суда собственной памяти и от чувства стыда за однажды содеянное. Кстати, в этом тоже проявляется унаследованный киноопыт Брайана Де Пальмы, который толково воспринял уроки Альфреда Хичкока-моралиста.

Целая группа молодых американских актёров приобрела известность благодаря «Кэрри», и они снимались у режиссёра в других его лентах, а Нэнси Аллен даже была в 1979—84 годы женой Де Пальмы. Но по праву солирует в этой картине (и даже была номинирована на «Оскар») тогда уже 26-летняя по возрасту, хотя и кажущаяся девочкой-подростком Сисси Спейсек — внешне экстравагантная, не отвечающая голливудским стандартам, но обладающая с огромной внутренней силой и скрытым упорством характера, что как раз и совпало с воплощённым ею образом на экране.
За оцифровку перевода с VHS спасибо Fikaloid. Роли озвучивали Елена Соловьева, Марина Тарасова и Сергей Чекан.
Автор рипа Stuey
General
Complete name : G:Carrie.1976.HDRip-Varus.avi
Format : AVI
Format/Info : Audio Video Interleave
File size : 1.46 GiB
Duration : 1h 38mn
Overall bit rate : 2 130 Kbps
Writing application : VirtualDubMod 1.5.10.2 (build 2540/release)
Writing library : VirtualDubMod build 2540/release
Video
ID : 0
Format : MPEG-4 Visual
Format profile : Advanced [email protected]
Format settings, BVOP : Yes
Format settings, QPel : No
Format settings, GMC : No warppoints
Format settings, Matrix : Default (MPEG)
Codec ID : XVID
Codec ID/Hint : XviD
Duration : 1h 38mn
Bit rate : 1 929 Kbps
Width : 704 pixels
Height : 384 pixels
Display aspect ratio : 1.85:1
Frame rate : 23.976 fps
Color space : YUV
Chroma subsampling : 4:2:0
Bit depth : 8 bits
Scan type : Progressive
Compression mode : Lossy
Bits/(Pixel*Frame) : 0.298
Stream size : 1.32 GiB (91%)
Writing library : XviD 64
Audio
ID : 1
Format : AC-3
Format/Info : Audio Coding 3
Mode extension : CM (complete main)
Format settings, Endianness : Big
Codec ID : 2000
Duration : 1h 38mn
Bit rate mode : Constant
Bit rate : 192 Kbps
Channel count : 2 channels
Channel positions : Front: L R
Sampling rate : 48.0 KHz
Bit depth : 16 bits
Compression mode : Lossy
Stream size : 135 MiB (9%)
Alignment : Split accross interleaves
Interleave, duration : 42 ms (1.00 video frame)
Interleave, preload duration : 500 ms



Скачать Кэрри через торрент https://pic1.kartinco.top/images/61/swe4h.jpg Скачать, смотреть онлайн Кэрри бесплантно в хорошем качестве Описание: Тихую, робкую и доверчивую Кэрри третируют и обижают в школе и дома. Ребенок, от природы добрый, становится замкнутым и мрачным. ... 9.9 10 11
Info! Золотая раздача, скачанное не засчитывается.
Торрент: Зарегистрирован [2014-01-04 10:58] · скачан: 167 раз
Статус: √ проверено
Размер: 1.46 GB
Как cкачать? Как скачать Кэрри через торрент | UTorrent

28-11-2019 20:33  


Отключить вcю реклaмy на сайте, в т.ч. и в плеере онлайн просмотра!

04-01-2014 11:05 Кэрри Скачать торрент  

shuller
Спасибо за золотишко :pleasantry:



04-01-2014 11:15 Кэрри Скачать торрент  

killermax2013
Спасибо за кинишко ! :pleasantry:



04-01-2014 11:29 Кэрри Скачать торрент  

igorutka писал(а):

killermax2013
Спасибо за кинишко ! :pleasantry:

пожалуйста



    Дорогой пользователь! Огромная просьба, поблагодарите релизера, оцените раздачу и оставьте свои комментарий, если Вы скачали Кэрри через торрент бесплатно!!
    Комментировать посты могут только пользователи прошедшие не сложную регистрацию
    Показать сообщения:    


    Кэрри через торрент
    Скачать бесплатно Кэрри
    Кэрри скачать торрент
    Кэрри смотреть онлайн
    Cкачать фильм Кэрри бесплатно
    Кэрри скачать торрент в хорошем качестве
    Кэрри смотреть онлайн бесплатно в хорошем качестве
    Вы не можете начинать темы
    Вы не можете отвечать на сообщения
    Вы не можете редактировать свои сообщения
    Вы не можете удалять свои сообщения
    Вы не можете голосовать в опросах
    Вы не можете прикреплять файлы к сообщениям
    Вы можете скачивать файлы
    Кэрри / Carrie [1976, ужасы, мистика, драма, HDRip] [MVO] смотреть онлайн, скачать торрент picoco.icu