Доктор Стрэндж

Лицензия

Добыча

Дубляж

Дом дракона

1 сезон

Тор

Дубляж

В эфире

Дубляж

Там, где раки поют

MVO

Властелин колец

1 сезон

Ultimate

pack

Рекомендуем

30

Пиратка

ВАЖНО

ВАЖНО

Ghostwire

Пиратка

jed

RePack

nioh2

RePack

RDR2

RePack

NEED FOR SPEED™ PAYBACK

RePack

скачать торрент

Кинопоиск HD

Острые козырьки 6 сезон

6 сезон

FAR CRY 6

RePack

скачать торрент

Лицензия

скачать торрент

MVO

1

1 сезон

скачать торрент

1 сезон

скачать торрент

Лицензия

  

Рассеянный / Le Distrait (Пьер Ришар / Pierre Richard) [1970, Франция, комедия, мелодрама, WEB-DLRip-AVC] DVO (НТВ+)

Рассеянный через торрент 5050.piratbit.fun

Размер: 1.45 GB | Добавлен: 8 лет 8 мес. назад | Торрент скачан:49 раз
Смотреть онлайн | Скачать   

28-02-2014 14:34 Рассеянный Скачать торрент  

Рассеянный / Le Distrait
Страна: Франция
Жанр: комедия, мелодрама
Год выпуска: 1970
Продолжительность: 01:22:19
Перевод: Профессиональный (двухголосый закадровый) НТВ+
Cубтитры: нет

Режиссер: Пьер Ришар / Pierre Richard

В ролях: Пьер Ришар, Мари-Кристин Барро, Мария Паком, Катрин Сами, Мишлин Люссьони, Поль Пребуа, Цилла Шелтон, Робер Дальбан, Франсуа Мэтр, Жак Моно, Роман Бутей, Клод Эдрард, Энн-Мари Бло, Фанни Гэллард, Рауль Дэлфоз, Жан Об, Робер Ле Беаль, Рожер Люмон, Альбер Симоно, Бернар Шарлан, Бернар Блие, Андре Баден, Ив Барсак, Эллен Бернсен, Натали Курваль, Жак Дери, Анна Дукинг, Андре Дюма, Мишель Франчини, Марсель Гассук, Жорж Гере, Мариус Лори

Описание: Пьер Малаке — эксцентричный и невероятно рассеянный молодой человек с богатым воображением, живущий в мире грёз и постоянно попадающий в различные курьёзные ситуации. По рекомендации матери он нанят в крупное рекламное агентство «Жерико». Пьер, полный бредовых рекламных идей, вмешивается во все дела и пытается всё переделать на свой манер. Его рекламные ролики напоминают фильмы ужасов; тема насилия и смерти забавляет его, чёрный юмор присутствует во всех его работах. Он убеждён, что «шоковая» реклама — самая эффективная и современная. Его действия шокируют и раздражают сотрудников, но, к их изумлению, строгий босс, господин Гитон спускает Пьеру с рук все его проделки


Качество видео: WEB-DLRip-AVC [Исходник WEB-DL 720p / HDCLUB]
Формат видео: MKV
Видео кодек: H.264
Аудио кодек: AC3
Видео: 864x516 (1.674), 24 fps, H264 ~ 2 331 Kbps, 0.218 bit/pixel
Аудио: 48 kHz, AC3 Dolby Digital, 2/0 (L,R) Surround Encoded ch, ~192 kbps
Раздача от:
D:Мои рипыLe.Distrait.1970.WEB-DLRip-AVC.dexter_lex.mkv
General
Unique ID : 196327993769586128571040028332903065190 (0x93B3656E2A314135A2BED5C3E1AF6666)
Complete name : D:Мои рипыLe.Distrait.1970.WEB-DLRip-AVC.dexter_lex.mkv
Format : Matroska
Format version : Version 2
File size : 1.45 GiB
Duration : 1h 22mn
Overall bit rate : 2 525 Kbps
Encoded date : UTC 2014-02-26 01:03:20
Writing application : mkvmerge v6.1.0 ('Old Devil') built on Mar 4 2013 09:10:42
Writing library : libebml v1.3.0 + libmatroska v1.4.0
Video #1
ID : 1
Format : AVC
Format/Info : Advanced Video Codec
Format profile : [email protected]
Format settings, CABAC : Yes
Format settings, ReFrames : 11 frames
Codec ID : V_MPEG4/ISO/AVC
Duration : 1h 22mn
Bit rate : 2 331 Kbps
Width : 864 pixels
Height : 516 pixels
Display aspect ratio : 1.674
Frame rate : 24.000 fps
Color space : YUV
Chroma subsampling : 4:2:0
Bit depth : 8 bits
Scan type : Progressive
Bits/(Pixel*Frame) : 0.218
Stream size : 1.31 GiB (90%)
Writing library : x264 core 130 r2273 b3065e6
Encoding settings : cabac=1 / ref=11 / deblock=1:-2:-2 / analyse=0x3:0x113 / me=umh / subme=11 / psy=1 / psy_rd=1.00:0.15 / mixed_ref=1 / me_range=48 / chroma_me=1 / trellis=2 / 8x8dct=1 / cqm=0 / deadzone=21,11 / fast_pskip=0 / chroma_qp_offset=-3 / threads=6 / lookahead_threads=1 / sliced_threads=0 / nr=0 / decimate=1 / interlaced=0 / bluray_compat=0 / constrained_intra=0 / bframes=9 / b_pyramid=2 / b_adapt=2 / b_bias=0 / direct=3 / weightb=1 / open_gop=0 / weightp=2 / keyint=240 / keyint_min=24 / scenecut=40 / intra_refresh=0 / rc_lookahead=60 / rc=2pass / mbtree=1 / bitrate=2331 / ratetol=1.0 / qcomp=0.60 / qpmin=0 / qpmax=69 / qpstep=4 / cplxblur=20.0 / qblur=0.5 / ip_ratio=1.40 / aq=1:1.00
Default : Yes
Forced : No
Audio #2
ID : 2
Format : AC-3
Format/Info : Audio Coding 3
Format profile : Dolby Digital
Mode extension : CM (complete main)
Codec ID : A_AC3
Duration : 1h 22mn
Bit rate mode : Constant
Bit rate : 192 Kbps
Channel(s) : 2 channels
Channel positions : Front: L R
Sampling rate : 48.0 KHz
Bit depth : 16 bits
Compression mode : Lossy
Stream size : 113 MiB (8%)
Default : Yes
Forced : No



Скачать Рассеянный через торрент http://i57.fastpic.ru/big/2014/0228/db/9dbb136a1623e48c0acc419682bc62db.jpg Скачать, смотреть онлайн Рассеянный бесплантно в хорошем качестве Описание: Пьер Малаке — эксцентричный и невероятно рассеянный молодой человек с богатым воображением, живущий в мире грёз и постоянно ... 10 10 2
Info! Золотая раздача, скачанное не засчитывается.
Торрент: Зарегистрирован [2014-02-28 14:34] · скачан: 49 раз
Статус: √ проверено
Размер: 1.45 GB
Как cкачать? Как скачать Рассеянный через торрент | UTorrent

28-11-2019 20:33  


Отключить вcю реклaмy на сайте, в т.ч. и в плеере онлайн просмотра!

    Дорогой пользователь! Огромная просьба, поблагодарите релизера, оцените раздачу и оставьте свои комментарий, если Вы скачали Рассеянный через торрент бесплатно!!
    Комментировать посты могут только пользователи прошедшие не сложную регистрацию
    Показать сообщения:    


    Рассеянный через торрент
    Скачать бесплатно Рассеянный
    Рассеянный скачать торрент
    Рассеянный смотреть онлайн
    Cкачать фильм Рассеянный бесплатно
    Рассеянный скачать торрент в хорошем качестве
    Рассеянный смотреть онлайн бесплатно в хорошем качестве
    Вы не можете начинать темы
    Вы не можете отвечать на сообщения
    Вы не можете редактировать свои сообщения
    Вы не можете удалять свои сообщения
    Вы не можете голосовать в опросах
    Вы не можете прикреплять файлы к сообщениям
    Вы можете скачивать файлы
    Рассеянный / Le Distrait [1970, Франция, комедия, мелодрама, WEB-DLRip-AVC] DVO смотреть онлайн, скачать торрент picoco.icu