Доктор Стрэндж

Лицензия

Добыча

Дубляж

Уэнсдэй

1 сезон

Тор

Дубляж

В эфире

Дубляж

Там, где раки поют

MVO

Властелин колец

1 сезон

Deluxe

pack

Рекомендуем

30

Пиратка

ВАЖНО

ВАЖНО

Ghostwire

Пиратка

jed

RePack

nioh2

RePack

RDR2

RePack

NEED FOR SPEED™ PAYBACK

RePack

скачать торрент

Кинопоиск HD

Острые козырьки 6 сезон

6 сезон

FAR CRY 6

RePack

скачать торрент

Лицензия

скачать торрент

MVO

1

1 сезон

скачать торрент

1 сезон

скачать торрент

Лицензия

  

Вечеринка / The Party (Блэйк Эдвардс) [1968г., Kомедия, BDRip] MVO

Вечеринка через торрент 5050.piratbit.fun

Размер: 1.36 GB | Добавлен: 8 лет 2 мес. назад | Торрент скачан:9 раз
Смотреть онлайн | Скачать   

26-09-2014 07:05 Вечеринка Скачать торрент  

Вечеринка / The Party
Год выпуска: 1968
Страна: США
Жанр: Kомедия
Продолжительность: 01:39:04
Перевод: профессиональный многоголосый
Субтитры: английские (отдельно)

Режиссёр: Блэйк Эдвардс

В ролях: Питер Селлерс, Клодин Лонже, Мардж Чэмпион, Фэй МакКензи, Стив Фрэнкен, Бадди Лестер, Денни Миллер, Гэвин МакЛауд, Кэрол Уэйн, Дик Крокетт, Фрэнсис Дэвис, Даниэль Де Мец

Описание: Мистера Хрунди Ви Бакши пригласили сниматься в кино. Он был слегка рассеян и случайно наступил на рычаг, что привело к взрыву дорогостоящей декорации крепости. Приглашение на ужин, которое так же случайно пришло на его адрес, приводит Бакши в дом директора пострадавшей киностудии. В этом шикарном особняке с бассейном и садом начинается «замечательная» вечеринка, о которой никогда не забудут все её участники...



Качество: BDRip Сравнение с исходником
Формат: AVI
Видео кодек: XviD
Аудио кодек: AC3
Видео: 1574 Кбит/с, 720x304, 23,976 кадра/сек
Аудио: русский, AC3, 192 kbps, 2 ch, 48 kHz [профессиональный многоголосый]

Отдельный файл
Аудио: английский, AC3, 192 kbps, 2 ch, 48 kHz [оригинал]

Автор рипа msltel
Общее
Полное имя : D:\Video\Vecherinka.1968.BDRip\Vecherinka.1968.BDRip.avi
Формат : AVI
Формат/Информация : Audio Video Interleave
Размер файла : 1,23 Гбайт
Продолжительность : 1 ч. 39 м.
Общий поток : 1776 Кбит/сек
Программа кодирования : VirtualDubMod 1.5.10.2 (build 2540/release)
Библиотека кодирования : VirtualDubMod build 2540/release

Видео
Идентификатор : 0
Формат : MPEG-4 Visual
Профиль формата : Advanced [email protected]
Параметр BVOP формата : 1
Параметр QPel формата : Нет
Параметр GMC формата : Без точки перехода
Параметр матрицы формата : Default (H.263)
Режим смешивания : Сжатый битовый поток
Идентификатор кодека : XVID
Идентификатор кодека/Подсказка : XviD
Продолжительность : 1 ч. 39 м.
Битрейт : 1574 Кбит/сек
Ширина : 720 пикселей
Высота : 304 пикселя
Соотношение сторон : 2,35:1
Частота кадров : 23,976 кадра/сек
Цветовое пространство : YUV
Субдискретизация насыщенности : 4:2:0
Битовая глубина : 8 бит
Тип развёртки : Прогрессивная
Метод сжатия : С потерями
Бит/(Пиксели*Кадры) : 0.300
Размер потока : 1,09 Гбайт (89%)
Библиотека кодирования : XviD 1.2.1 (UTC 2008-12-04)

Аудио
Идентификатор : 1
Формат : AC-3
Формат/Информация : Audio Coding 3
Расширение режима : CM (complete main)
Параметр Endianness формата : Big
Идентификатор кодека : 2000
Продолжительность : 1 ч. 39 м.
Вид битрейта : Постоянный
Битрейт : 192 Кбит/сек
Каналы : 2 канала
Расположение каналов : Front: L R
Частота : 48,0 КГц
Битовая глубина : 16 бит
Метод сжатия : С потерями
Размер потока : 136 Мбайт (11%)
Выравнивание : Разделение по промежуткам
Продолжительность промежутка : 42 мс. (1,00 видеокадр)
Время предзагрузки промежутка : 500 мс.

Общее
Полное имя : D:\Video\Vecherinka.1968.BDRip\Vecherinka.1968.eng.srt
Размер файла : 125 Кбайт

Общее
Полное имя : D:\Video\Vecherinka.1968.BDRip\Vecherinka.1968.Original.eng.ac3
Формат : AC-3
Формат/Информация : Audio Coding 3
Размер файла : 136 Мбайт
Продолжительность : 1 ч. 39 м.
Режим общего битрейта : Постоянный
Общий поток : 192 Кбит/сек

Аудио
Формат : AC-3
Формат/Информация : Audio Coding 3
Расширение режима : CM (complete main)
Параметр Endianness формата : Big
Продолжительность : 1 ч. 39 м.
Вид битрейта : Постоянный
Битрейт : 192 Кбит/сек
Каналы : 2 канала
Расположение каналов : Front: L R
Частота : 48,0 КГц
Битовая глубина : 16 бит
Метод сжатия : С потерями
Размер потока : 136 Мбайт (100%)



Скачать Вечеринка через торрент http://i65.fastpic.ru/big/2014/0926/ea/db0f1cb02f33cb5e9d9bcfb7aa515bea.jpg Скачать, смотреть онлайн Вечеринка бесплантно в хорошем качестве Описание: Мистера Хрунди Ви Бакши пригласили сниматься в кино. Он был слегка рассеян и случайно наступил на рычаг, что привело к взрыву ... 7.5 10 2
Info! Золотая раздача, скачанное не засчитывается.
Торрент: Зарегистрирован [2014-09-26 07:05] · скачан: 9 раз
Статус: √ проверено
Размер: 1.36 GB
Как cкачать? Как скачать Вечеринка через торрент | UTorrent

% Раздел Тема Автор DL S | L
Фильмы [HD 720p, 1080p] (Хороший звук DUB, MVO) [ 9.3 GB ] Вечеринка / The Party | MVO | 1080p msltel Скачать
1 | 0
Фильмы [HD 720p, 1080p] (Хороший звук DUB, MVO) [ 3.35 GB ] Вечеринка / The Party | MVO | 720p msltel Скачать
1 | 0



Последний раз редактировалось: msltel (2014-09-26 15:08), всего редактировалось 1 раз

28-11-2019 20:33  


Отключить вcю реклaмy на сайте, в т.ч. и в плеере онлайн просмотра!

    Дорогой пользователь! Огромная просьба, поблагодарите релизера, оцените раздачу и оставьте свои комментарий, если Вы скачали Вечеринка через торрент бесплатно!!
    Комментировать посты могут только пользователи прошедшие не сложную регистрацию
    Показать сообщения:    


    Вечеринка через торрент
    Скачать бесплатно Вечеринка
    Вечеринка скачать торрент
    Вечеринка смотреть онлайн
    Cкачать фильм Вечеринка бесплатно
    Вечеринка скачать торрент в хорошем качестве
    Вечеринка смотреть онлайн бесплатно в хорошем качестве
    Вы не можете начинать темы
    Вы не можете отвечать на сообщения
    Вы не можете редактировать свои сообщения
    Вы не можете удалять свои сообщения
    Вы не можете голосовать в опросах
    Вы не можете прикреплять файлы к сообщениям
    Вы можете скачивать файлы
    Вечеринка / The Party [1968г., Kомедия, BDRip] MVO смотреть онлайн, скачать торрент picoco.icu