Доктор Стрэндж

Лицензия

Добыча

Дубляж

Дом дракона

1 сезон

Тор

Дубляж

В эфире

Дубляж

Там, где раки поют

MVO

Властелин колец

1 сезон

Ultimate

pack

Рекомендуем

30

Пиратка

ВАЖНО

ВАЖНО

Ghostwire

Пиратка

jed

RePack

nioh2

RePack

RDR2

RePack

NEED FOR SPEED™ PAYBACK

RePack

скачать торрент

Кинопоиск HD

Острые козырьки 6 сезон

6 сезон

FAR CRY 6

RePack

скачать торрент

Лицензия

скачать торрент

MVO

1

1 сезон

скачать торрент

1 сезон

скачать торрент

Лицензия

  

Омен 4: Пробуждение / Omen IV: The Awakening (Хорхе Монтеси / Jorge Montesi, Доминик Отенен-Жирар / Dominique Othenin-Girard) [1991, США, Канада, ужасы, триллер, детектив, DVDRip,Профессиональный многоголосый

Омен 4: Пробуждение через торрент 5050.piratbit.fun

Размер: 1.37 GB | Добавлен: 8 лет назад | Торрент скачан:33 раза
Смотреть онлайн | Скачать   

28-10-2014 08:05 Омен 4: Пробуждение Скачать торрент  

Омен 4: Пробуждение / Omen IV: The Awakening

Год выпуска: 1991
Страна: США, Канада
Жанр: ужасы, триллер, детектив

Продолжительность: 01:33:20
Перевод: Профессиональный многоголосый
Субтитры: Нет
Режиссер: Хорхе Монтеси / Jorge Montesi, Доминик Отенен-Жирар / Dominique Othenin-Girard
В ролях: Фэй Грант (Karen York), Майкл Вудс (Gene York), Майкл Лернер (Earl), Мэдисон Мэйсон (Dr. Hastings), Энн Хирн (Jo Thueson), Джим Бёрнс (Noah), Дон С. Дэвис (Jake Madison), Азия Виейра (Delia), Меган Лейтч (Sister Yvonne / Felicity), Джой Когхилл (Sister Francesca), Дэвид Камерон (Father Hayes), Дункан Фрайзер (Father Mattson)
Описание:
Дэмиен Торн мертв, но Пророчество существует, и на свет появляется девочка по имени Дилия, которую удочеряет молодая пара Карен и Джин Йорк. Когда Карен узнает, что Дилия была рождена при загадочных обстоятельствах, она нанимает частного детектива, чтобы найти настоящих родителей девочки.
Вокруг начинают происходить зловещие кровавые события, и Карен начинает бояться и подозревать всех в смертельном заговоре против нее, так же как ей становится известна адская правда о ребенке...
Рейтинг
kinopoisk.ru: 5.053 (1590)
imdb.com: 3.80 (3895)
Качество: DVDRip
Формат: AVI
Видео кодек: DivX 4
Аудио кодек:AC3
Видео: DivX 4, 720x384 (1.875), 1701 kbps, 25 fps, 0,246 bpp
Аудио: AC3 / 5.1 / 48 kHz / 384 kbps / 16 bit

Общее
Полное имя : D:\torrent\The Omen. Quadrilogy. 4 - The Awakening (1991).avi
Формат : AVI
Формат/Информация : Audio Video Interleave
Размер файла : 1,37 Гбайт
Продолжительность : 1 ч. 33 м.
Общий поток : 2096 Кбит/сек
Программа кодирования : VirtualDubModRus 1.5.10.2 (build 2540/release)
Библиотека кодирования : VirtualDubMod build 2540/release

Видео
Идентификатор : 0
Формат : MPEG-4 Visual
Профиль формата : Advanced [email protected]
Параметр BVOP формата : 2
Параметр QPel формата : Нет
Параметр GMC формата : Без точки перехода
Параметр матрицы формата : Default (MPEG)
Режим смешивания : Сжатый битовый поток
Идентификатор кодека : DIVX
Идентификатор кодека/Информация : Project Mayo
Идентификатор кодека/Подсказка : DivX 4
Продолжительность : 1 ч. 33 м.
Битрейт : 1702 Кбит/сек
Ширина : 720 пикселей
Высота : 384 пикселя
Соотношение сторон : 1,85:1
Частота кадров : 25,000 кадров/сек
Цветовое пространство : YUV
Субдискретизация насыщенности : 4:2:0
Битовая глубина : 8 бит
Тип развёртки : Прогрессивная
Метод сжатия : С потерями
Бит/(Пиксели*Кадры) : 0.246
Размер потока : 1,11 Гбайт (81%)
Библиотека кодирования : XviD 1.2.0SMP (UTC 2006-01-08)

Аудио
Идентификатор : 1
Формат : AC-3
Формат/Информация : Audio Coding 3
Расширение режима : CM (complete main)
Параметр Endianness формата : Big
Идентификатор кодека : 2000
Продолжительность : 1 ч. 33 м.
Вид битрейта : Постоянный
Битрейт : 384 Кбит/сек
Каналы : 6 каналов
Расположение каналов : Front: L C R, Side: L R, LFE
Частота : 48,0 КГц
Битовая глубина : 16 бит
Метод сжатия : С потерями
Размер потока : 256 Мбайт (18%)
Выравнивание : Разделение по промежуткам
Продолжительность промежутка : 40 мс. (1,00 видеокадр)
Время предзагрузки промежутка : 500 мс.






Скачать Омен 4: Пробуждение через торрент http://i5-imageban-ru.translate.goog/out/2014/10/28/d61683becfaa2e9aef3637d3541c7700.jpg Скачать, смотреть онлайн Омен 4: Пробуждение бесплантно в хорошем качестве Описание: Дэмиен Торн мертв, но Пророчество существует, и на свет появляется девочка по имени Дилия, которую удочеряет молодая пара Карен и ... 10 10 5
Торрент: Зарегистрирован [2014-10-28 08:05] · скачан: 33 раз
Статус: √ проверено
Размер: 1.37 GB
Как cкачать? Как скачать Омен 4: Пробуждение через торрент | UTorrent




Последний раз редактировалось: jump88 (2014-10-28 11:49), всего редактировалось 1 раз

28-11-2019 20:33  


Отключить вcю реклaмy на сайте, в т.ч. и в плеере онлайн просмотра!

28-10-2014 10:04 Омен 4: Пробуждение Скачать торрент  

По моему на 1 скрине у ней 2 коронки стоят)) worry



    Дорогой пользователь! Огромная просьба, поблагодарите релизера, оцените раздачу и оставьте свои комментарий, если Вы скачали Омен 4: Пробуждение через торрент бесплатно!!
    Комментировать посты могут только пользователи прошедшие не сложную регистрацию
    Показать сообщения:    


    Омен 4: Пробуждение через торрент
    Скачать бесплатно Омен 4: Пробуждение
    Омен 4: Пробуждение скачать торрент
    Омен 4: Пробуждение смотреть онлайн
    Cкачать фильм Омен 4: Пробуждение бесплатно
    Омен 4: Пробуждение скачать торрент в хорошем качестве
    Омен 4: Пробуждение смотреть онлайн бесплатно в хорошем качестве
    Вы не можете начинать темы
    Вы не можете отвечать на сообщения
    Вы не можете редактировать свои сообщения
    Вы не можете удалять свои сообщения
    Вы не можете голосовать в опросах
    Вы не можете прикреплять файлы к сообщениям
    Вы можете скачивать файлы
    Омен 4: Пробуждение / Omen IV: The Awakening [1991, США, Канада, ужасы, триллер, детектив, DVDRip,Профессиональный многоголосый смотреть онлайн, скачать торрент picoco.icu