Доктор Стрэндж

Лицензия

Добыча

Дубляж

Уэнсдэй

1 сезон

Тор

Дубляж

В эфире

Дубляж

Там, где раки поют

MVO

Властелин колец

1 сезон

Deluxe

pack

Рекомендуем

30

Пиратка

ВАЖНО

ВАЖНО

Ghostwire

Пиратка

jed

RePack

nioh2

RePack

RDR2

RePack

NEED FOR SPEED™ PAYBACK

RePack

скачать торрент

Кинопоиск HD

Острые козырьки 6 сезон

6 сезон

FAR CRY 6

RePack

скачать торрент

Лицензия

скачать торрент

MVO

1

1 сезон

скачать торрент

1 сезон

скачать торрент

Лицензия

  

Никто не совершенен / Nessuno è perfetto (Паскуале Феста Кампаниле) [1981 г., комедия, мелодрама, DVDRip, AVO]

Никто не совершенен через торрент 5050.piratbit.fun

Размер: 1.37 GB | Добавлен: 8 лет 1 мес. назад | Торрент скачан:53 раза
Смотреть онлайн | Скачать   

29-10-2014 08:16 Никто не совершенен Скачать торрент  

Никто не совершенен / Nessuno è perfetto
Год выпуска: 1981
Страна: Италия
Жанр: комедия, мелодрама
Продолжительность: 01:39:25
Перевод: Авторский (одноголосый закадровый) Мудров Андрей

Режиссер: Паскуале Феста Кампаниле



В ролях: Орнелла Мути, Ренато Поццетто, Феличе Андреази, Массимо Болди, Габриэле Тинти, Лина Волоньги, Франческо Висентин

Описание: Владелец небольшого винного завода, Гуэррино Кастильони (Ренато Поццетто), несколько лет назад похоронивший жену, практически утратил интерес к жизни. Во время одной из бессмысленных ночных поездок по городу он знакомится с очаровательной моделью Шанталь (Орнелла Мути). Молодые люди влюбляются друг в друга и практически сразу женятся. Шанталь помогает Гуэррино вернуть вкус к жизни и начать все сначала, но семейная идиллия длилась недолго. Благодаря проискам бывшей тещи, имеющей свои виды на зятя, Гуэррино узнает, что его прекрасная жена...

Качество: DVDRip
Формат: AVI
Видео кодек: DivX
Аудио кодек: AC3
Видео: 720x384 (1.88:1), 25 fps, DivX Codec 5.2.1 build 1338, 1771 kbps
Аудио#1: 48 kHz, AC3 Dolby Digital, 2/0 (L,R) ch, ~192 kbps




General
Complete name : F:\Nessuno.e.perfetto_1981.avi
Format : AVI
Format/Info : Audio Video Interleave
File size : 1.37 GiB
Duration : 1h 39mn
Overall bit rate : 1 970 Kbps
Writing application : VirtualDubMod 1.5.4.1 (build 2178/release)
Writing library : VirtualDubMod build 2178/release

Video
ID : 0
Format : MPEG-4 Visual
Format settings, BVOP : No
Format settings, QPel : No
Format settings, GMC : No warppoints
Format settings, Matrix : Default (H.263)
Codec ID : DX50
Codec ID/Hint : DivX 5
Duration : 1h 39mn
Bit rate : 1 771 Kbps
Width : 720 pixels
Height : 384 pixels
Display aspect ratio : 1.85:1
Frame rate : 25.000 fps
Color space : YUV
Chroma subsampling : 4:2:0
Bit depth : 8 bits
Scan type : Progressive
Compression mode : Lossy
Bits/(Pixel*Frame) : 0.256
Stream size : 1.23 GiB (90%)
Writing library : DivX 5.2.1 (DrDivX 106) (UTC 2004-09-08)

Audio
ID : 1
Format : AC-3
Format/Info : Audio Coding 3
Mode extension : CM (complete main)
Format settings, Endianness : Big
Codec ID : 2000
Duration : 1h 39mn
Bit rate mode : Constant
Bit rate : 192 Kbps
Channel(s) : 2 channels
Channel positions : Front: L R
Sampling rate : 48.0 KHz
Bit depth : 16 bits
Compression mode : Lossy
Stream size : 137 MiB (10%)
Alignment : Split accross interleaves
Interleave, duration : 96 ms (2.40 video frames)
Interleave, preload duration : 96 ms


Никто не совершенен скачать торрент





Скачать Никто не совершенен через торрент https://pic1.kartinco.top/images/71/573bm.jpg Скачать, смотреть онлайн Никто не совершенен бесплантно в хорошем качестве Описание: Владелец небольшого винного завода, Гуэррино Кастильони (Ренато Поццетто), несколько лет назад похоронивший жену, практически ... 10 10 6
Торрент: Зарегистрирован [2014-10-29 08:16] · скачан: 53 раз
Статус: √ проверено
Размер: 1.37 GB
Как cкачать? Как скачать Никто не совершенен через торрент | UTorrent

% Раздел Тема Автор DL S | L
Фильмы с авторской озвучкой [ 1.58 GB ] Никто не совершенен / Nessuno è perfetto | | DVDRip-AVC, Авторский (одноголосый dumbia Скачать
1 | 0

28-11-2019 20:33  


Отключить вcю реклaмy на сайте, в т.ч. и в плеере онлайн просмотра!

    Дорогой пользователь! Огромная просьба, поблагодарите релизера, оцените раздачу и оставьте свои комментарий, если Вы скачали Никто не совершенен через торрент бесплатно!!
    Комментировать посты могут только пользователи прошедшие не сложную регистрацию
    Показать сообщения:    


    Никто не совершенен через торрент
    Скачать бесплатно Никто не совершенен
    Никто не совершенен скачать торрент
    Никто не совершенен смотреть онлайн
    Cкачать фильм Никто не совершенен бесплатно
    Никто не совершенен скачать торрент в хорошем качестве
    Никто не совершенен смотреть онлайн бесплатно в хорошем качестве
    Вы не можете начинать темы
    Вы не можете отвечать на сообщения
    Вы не можете редактировать свои сообщения
    Вы не можете удалять свои сообщения
    Вы не можете голосовать в опросах
    Вы не можете прикреплять файлы к сообщениям
    Вы можете скачивать файлы
    Никто не совершенен / Nessuno è perfetto [1981 г., комедия, мелодрама, DVDRip, AVO] смотреть онлайн, скачать торрент picoco.icu