Доктор Стрэндж

Лицензия

Добыча

Дубляж

Уэнсдэй

1 сезон

Тор

Дубляж

В эфире

Дубляж

Там, где раки поют

MVO

Властелин колец

1 сезон

Deluxe

pack

Рекомендуем

30

Пиратка

ВАЖНО

ВАЖНО

Ghostwire

Пиратка

jed

RePack

nioh2

RePack

RDR2

RePack

NEED FOR SPEED™ PAYBACK

RePack

скачать торрент

Кинопоиск HD

Острые козырьки 6 сезон

6 сезон

FAR CRY 6

RePack

скачать торрент

Лицензия

скачать торрент

MVO

1

1 сезон

скачать торрент

1 сезон

скачать торрент

Лицензия

  

Цирк / The Circus (Чарльз Чаплин) [1928 г., мелодрама, комедия, DVDRip, Оригинал]

Цирк через торрент 5050.piratbit.fun

Размер: 870 MB | Добавлен: 7 лет 10 мес. назад | Торрент скачан:82 раза
Смотреть онлайн | Скачать   

17-01-2015 19:14 Цирк Скачать торрент  

Цирк / The Circus
Год выпуска: 1928
Страна: США
Жанр: мелодрама, комедия
Продолжительность: 71 мин. / 01:11
Перевод: Оригинал
Субтитры: Русские

Режиссер: Чарльз Чаплин
Продюссер: Чарльз Чаплин
Сценарий: Чарльз Чаплин

Бюджет: 6 января 1928
Премьера в мире: 6 января 1928

IMDB 8.10 (13 993)


В ролях: Чарльз Чаплин, Мерна Кеннеди, Аль Эрнест Гарсиа, Гарри Крокер, Джордж Дэвис, Генри Бергман, Тайни Сэндфорд, Джон Рэнд, Стив Мерфи, Альберт Остин

Описание: Грустная комедия о приключениях Чарли в составе гастролирующего цирка. «Цирк» одна из самых популярных и удачных его картин, где редкое сочетание комического с лирическим, талант сатирика, изобличающего все, что мешает людям, нашли зримое воплощение.

Качество: DVDRip
Формат: MKV
Видео кодек: AVC
Аудио кодек: AC3
Видео: 704х560 (AR 4:3 @ 750x560), PAL, 25 fps, 1580 kbps, 0.157 b/p
Аудио#1: 192 Кбит/сек, 2 канала, 48,0 КГц
скриншот   скриншот   скриншот   скриншот   скриншот  

Общее
Уникальный идентификатор : 245301007616269397797721778427141346897 (0xB88B416EB77CA0A4AE4B3D8C51C0D651)
Полное имя : D:\Видео\1928 - The Circus (Charlie Chaplin).mkv
Формат : Matroska
Версия формата : Version 2
Размер файла : 870 Мбайт
Продолжительность : 1 ч. 8 м.
Общий поток : 1774 Кбит/сек
Дата кодирования : UTC 2010-02-01 13:15:06
Программа кодирования : mkvmerge v3.0.0 ('Hang up your Hang-Ups') built on Dec 12 2009 15:20:35
Библиотека кодирования : libebml v0.7.9 + libmatroska v0.8.1
Attachment : x264_log inside

Видео
Идентификатор : 1
Формат : AVC
Формат/Информация : Advanced Video Codec
Профиль формата : [email protected]
Параметр CABAC формата : Да
Параметр ReFrames формата : 11 кадров
Идентификатор кодека : V_MPEG4/ISO/AVC
Продолжительность : 1 ч. 8 м.
Битрейт : 1546 Кбит/сек
Ширина : 704 пикселя
Высота : 560 пикселей
Соотношение сторон : 4:3
Режим частоты кадров : Постоянный
Частота кадров : 25,000 кадров/сек
Цветовое пространство : YUV
Субдискретизация насыщенности : 4:2:0
Битовая глубина : 8 бит
Тип развёртки : Прогрессивная
Бит/(Пиксели*Кадры) : 0.157
Размер потока : 759 Мбайт (87%)
Заголовок : The Circus, 1928 (Charlie Chaplin)
Язык : English
Default : Да
Forced : Нет

Аудио
Идентификатор : 2
Формат : AC-3
Формат/Информация : Audio Coding 3
Расширение режима : CM (complete main)
Параметр Endianness формата : Big
Идентификатор кодека : A_AC3
Продолжительность : 1 ч. 8 м.
Вид битрейта : Постоянный
Битрейт : 192 Кбит/сек
Каналы : 2 канала
Расположение каналов : Front: L R
Частота : 48,0 КГц
Битовая глубина : 16 бит
Метод сжатия : С потерями
Размер потока : 94,2 Мбайт (11%)
Заголовок : Soundtrack composed by Charlie Chaplin
Язык : English
Default : Да
Forced : Нет

Текст
Идентификатор : 3
Формат : UTF-8
Идентификатор кодека : S_TEXT/UTF8
Идентификатор кодека/Информация : UTF-8 Plain Text
Заголовок : Russian by AG77
Язык : Russian
Default : Да
Forced : Нет


Цирк скачать торрент





Скачать Цирк через торрент https://pic1.kartinco.top/images/81/cxk9y.jpg Скачать, смотреть онлайн Цирк бесплантно в хорошем качестве Описание: Грустная комедия о приключениях Чарли в составе гастролирующего цирка. «Цирк» одна из самых популярных и удачных его картин, где ... 10 10 9
Info! Золотая раздача, скачанное не засчитывается.
Торрент: Зарегистрирован [2015-01-17 19:14] · скачан: 82 раз
Статус: √ проверено
Размер: 870 MB
Как cкачать? Как скачать Цирк через торрент | UTorrent

28-11-2019 20:33  


Отключить вcю реклaмy на сайте, в т.ч. и в плеере онлайн просмотра!

    Дорогой пользователь! Огромная просьба, поблагодарите релизера, оцените раздачу и оставьте свои комментарий, если Вы скачали Цирк через торрент бесплатно!!
    Комментировать посты могут только пользователи прошедшие не сложную регистрацию
    Показать сообщения:    


    Цирк через торрент
    Скачать бесплатно Цирк
    Цирк скачать торрент
    Цирк смотреть онлайн
    Cкачать фильм Цирк бесплатно
    Цирк скачать торрент в хорошем качестве
    Цирк смотреть онлайн бесплатно в хорошем качестве
    Вы не можете начинать темы
    Вы не можете отвечать на сообщения
    Вы не можете редактировать свои сообщения
    Вы не можете удалять свои сообщения
    Вы не можете голосовать в опросах
    Вы не можете прикреплять файлы к сообщениям
    Вы можете скачивать файлы
    Цирк / The Circus [1928 г., мелодрама, комедия, DVDRip, Оригинал] смотреть онлайн, скачать торрент picoco.icu