Доктор Стрэндж

Лицензия

Добыча

Дубляж

Дом дракона

1 сезон

Тор

Дубляж

В эфире

Дубляж

Там, где раки поют

MVO

Властелин колец

1 сезон

Ultimate

pack

Рекомендуем

30

Пиратка

ВАЖНО

ВАЖНО

Ghostwire

Пиратка

jed

RePack

nioh2

RePack

RDR2

RePack

NEED FOR SPEED™ PAYBACK

RePack

скачать торрент

Кинопоиск HD

Острые козырьки 6 сезон

6 сезон

FAR CRY 6

RePack

скачать торрент

Лицензия

скачать торрент

MVO

1

1 сезон

скачать торрент

1 сезон

скачать торрент

Лицензия

  

Капоне / Capone (Стив Карвер ) [1975, драма, криминал, биография, BDRip, Профессиональный многоголосый [Лицензия]

Капоне через торрент 5050.piratbit.fun

Размер: 1.44 GB | Добавлен: 7 лет 9 мес. назад | Торрент скачан:206 раз
Смотреть онлайн | Скачать   

10-02-2015 19:24 Капоне Скачать торрент  

Капоне / Capone
«From Underworld To Empire»

ИНФОРМАЦИЯ:
Год выпуска:1975
Страна: США
Жанр:драма, криминал, биография
Продолжительность01:41:18
Перевод:Профессиональный многоголосый [Лицензия]
Режиссер:Стив Карвер

В Ролях:


Бен Газзара (Al Capone), Гарри Гуардино (Johnny Torrio), Сьюзан Блейкли (Iris Crawford), Сильвестр Сталлоне (Frank Nitti), Джон Кассаветис (Frankie Yale), Фрэнк Кампанелла (Big Jim Colosimo), Джон Орхард (Dion O'Banion), Кармен Ардженциано (Jack McGurn), Джордж Чандлер (Robert E. Crowe), Джон Дэвис Чэндлер (Hymie Weiss), Ройал Дэно (Anton J. Cermak), Джо Де Николя (Charles Fischetti)

ОПИСАНИЕ:
В 1918 году крупнейшим мафиози был Торрио. Он учил Капоне общаться с политиками, судьями и адвокатами, учил его красиво говорить, одеваться и правильно вести себя в высшем обществе, чтобы никто не мог заподозрить, что он - из шпаны.
Постепенно Капоне приспособился к своим новым обязанностям и стал правой рукой Торрио. В городе учащались вооруженные мафиозные разборки. Соперники Торрио вынуждали его поделиться бизнесом. Капоне не мог с этим смириться и, понимая, что босса не переубедить, решил убить его и возглавить его мафиозную организацию.


ТЕХ.ДАННЫЕ:
Качество: BDRip
Формат:AVI
Видео кодек: XviD
Аудио кодек:AC3
Видео: XviD, 704x384 (16:9), 1580 kbps, 23,976 fps, 0,231 bpp
Аудио: AC3 / 5.1 / 48 kHz / 448 kbps / 16 bit

Код:

General
Complete name                            : D:\Торенты\Kapone.1975.Xvid.BDRip-MediaClub.avi
Format                                   : AVI
Format/Info                              : Audio Video Interleave
File size                                : 1.44 GiB
Duration                                 : 1h 41mn
Overall bit rate                         : 2 037 Kbps
Movie name                               : = MediaClub = rip by Painter
Writing application                      : VirtualDubMod 1.5.10.3 (build 2550/release)
Writing library                          : VirtualDubMod build 2550/release

Video
ID                                       : 0
Format                                   : MPEG-4 Visual
Format profile                           : Advanced [email protected]
Format settings, BVOP                    : 2
Format settings, QPel                    : No
Format settings, GMC                     : No warppoints
Format settings, Matrix                  : Custom
Codec ID                                 : XVID
Codec ID/Hint                            : XviD
Duration                                 : 1h 41mn
Bit rate                                 : 1580 Kbps
Width                                    : 704 pixels
Height                                   : 384 pixels
Display aspect ratio                     : 16:9
Frame rate                               : 23.976 fps
Color space                              : YUV
Chroma subsampling                       : 4:2:0
Bit depth                                : 8 bits
Scan type                                : Progressive
Compression mode                         : Lossy
Bits/(Pixel*Frame)                       : 0.231
Stream size                              : 1.06 GiB (74%)
Writing library                          : XviD 73

Audio
ID                                       : 1
Format                                   : AC-3
Format/Info                              : Audio Coding 3
Mode extension                           : CM (complete main)
Codec ID                                 : 2000
Duration                                 : 1h 41mn
Bit rate mode                            : Constant
Bit rate                                 : 448 Kbps
Channel(s)                               : 6 channels
Channel positions                        : Front: L C R, Side: L R, LFE
Sampling rate                            : 48.0 KHz
Bit depth                                : 16 bits
Compression mode                         : Lossy
Stream size                              : 325 MiB (22%)
Alignment                                : Split accross interleaves

Скриншоты:



Скачать Капоне через торрент http://i66.fastpic.ru/big/2015/0210/cb/c74019f39c8951445062f55d4a97fdcb.jpg Скачать, смотреть онлайн Капоне бесплантно в хорошем качестве Е:В 1918 году крупнейшим мафиози был Торрио. Он учил Капоне общаться с политиками, судьями и адвокатами, учил его красиво говорить, ... 10 10 4
Торрент: Зарегистрирован [2015-02-10 19:24] · скачан: 206 раз
Статус: √ проверено
Размер: 1.44 GB
Как cкачать? Как скачать Капоне через торрент | UTorrent

% Раздел Тема Автор DL S | L
Фильмы [HD 720p, 1080p] (Хороший звук DUB, MVO) [ 4.37 GB ] Капоне / Capone | Лицензия | 720p MVO [Лицензия Ворон Скачать
1 | 0

28-11-2019 20:33  


Отключить вcю реклaмy на сайте, в т.ч. и в плеере онлайн просмотра!

    Дорогой пользователь! Огромная просьба, поблагодарите релизера, оцените раздачу и оставьте свои комментарий, если Вы скачали Капоне через торрент бесплатно!!
    Комментировать посты могут только пользователи прошедшие не сложную регистрацию
    Показать сообщения:    


    Капоне через торрент
    Скачать бесплатно Капоне
    Капоне скачать торрент
    Капоне смотреть онлайн
    Cкачать фильм Капоне бесплатно
    Капоне скачать торрент в хорошем качестве
    Капоне смотреть онлайн бесплатно в хорошем качестве
    Вы не можете начинать темы
    Вы не можете отвечать на сообщения
    Вы не можете редактировать свои сообщения
    Вы не можете удалять свои сообщения
    Вы не можете голосовать в опросах
    Вы не можете прикреплять файлы к сообщениям
    Вы можете скачивать файлы
    Капоне / Capone [1975, драма, криминал, биография, BDRip, Профессиональный многоголосый [Лицензия] смотреть онлайн, скачать торрент picoco.icu