Доктор Стрэндж

Лицензия

Добыча

Дубляж

Дом дракона

1 сезон

Тор

Дубляж

В эфире

Дубляж

Там, где раки поют

MVO

Властелин колец

1 сезон

Ultimate

pack

Рекомендуем

30

Пиратка

ВАЖНО

ВАЖНО

Ghostwire

Пиратка

jed

RePack

nioh2

RePack

RDR2

RePack

NEED FOR SPEED™ PAYBACK

RePack

скачать торрент

Кинопоиск HD

Острые козырьки 6 сезон

6 сезон

FAR CRY 6

RePack

скачать торрент

Лицензия

скачать торрент

MVO

1

1 сезон

скачать торрент

1 сезон

скачать торрент

Лицензия

  

Мост слишком далеко / A Bridge Too Far (Ричард Аттэнборро / Richard Attenborough) [1977, драма, военный, исторический, DVDRip] [AVO] (Ю.Живов)

Мост слишком далеко через торрент 5050.piratbit.fun

Размер: 1.37 GB | Добавлен: 7 лет 8 мес. назад | Торрент скачан:111 раз
Смотреть онлайн | Скачать   

01-03-2015 20:47 Мост слишком далеко Скачать торрент  

Мост слишком далекоA Bridge Too Far
Год выпуска: 1977
Страна: Великобритания, США
Жанр: драма, военный, исторический
Продолжительность: 02:49:16
Перевод: Авторский (одноголосый, закадровый) [Юрий Живов]
Cубтитры: нет

Режиссер: Ричард Аттэнборро / Richard Attenborough

В ролях: Дирк Богард, Шон Коннери, Энтони Хопкинс, Майкл Кейн, Джеймс Каан, Эдвард Фокс, Эллиотт Гулд, Джин Хэкмен, Харди Крюгер, Райан О`Нил, Лоуренс Оливье, Роберт Редфорд, Максимилиан Шелл, Лив Ульман, Денхольм Эллиот, Питер Фабер, Кристофер Гуд

Описание: Этот фильм рассказывает подлинную историю боевой операции во время 2-ой Мировой войны, которая стоила много жизней, но мало что дала в ходе самой войны. Фельдмаршал Монтгомери и генерал Эйзенхаузер запланировали сбросить 35000 солдат союзников в Голландию, чтобы захватить шесть мостов, ведущих в Германию, после чего британские войска должны были быстро пройти через Бельгию к последнему мосту у Арнхема. Оттуда две группы должны были ворваться в район Рура и соокрушить уже разрушенные фабрики, работавшие на Германию. Закон Мерфи применялся в широком масштабе: отвратная погода, неправильные решения, паника, и неудачи - все противодействовало планам союзников. Операция под кодовым названием "Рыночный сад" (Market Garden) оказалась полной катастрофой.


СЭМПЛ
Качество видео: DVDRip
Формат видео: AVI
Видео кодек: XvID
Аудио кодек: AC3
Видео: 704x304 (2.32:1), 25 fps, XviD build 47 ~893 kbps avg, 0.17 bit/pixel
Аудио: 48 kHz, AC3 Dolby Digital, 2/0 (L,R) ch, ~256 kbps
Общее
Полное имя : E:\Torrent\A.Bridge.Too.Far.1977.avi
Формат : AVI
Формат/Информация : Audio Video Interleave
Размер файла : 1,37 Гбайт
Продолжительность : 2 ч. 49 м.
Общий поток : 1160 Кбит/сек
Программа кодирования : VirtualDubMod 1.5.4.1 (build 2178/release)
Библиотека кодирования : VirtualDub build 35512/release
Видео
Идентификатор : 0
Формат : MPEG-4 Visual
Профиль формата : Advanced [email protected]
Параметр BVOP формата : 1
Параметр QPel формата : Нет
Параметр GMC формата : Без точки перехода
Параметр матрицы формата : Выборочная
Идентификатор кодека : XVID
Идентификатор кодека/Подсказка : XviD
Продолжительность : 2 ч. 49 м.
Битрейт : 894 Кбит/сек
Ширина : 704 пикселя
Высота : 304 пикселя
Соотношение сторон : 2,35:1
Частота кадров : 25,000 кадров/сек
Цветовое пространство : YUV
Субдискретизация насыщенности : 4:2:0
Битовая глубина : 8 бит
Тип развёртки : Прогрессивная
Метод сжатия : С потерями
Бит/(Пиксели*Кадры) : 0.167
Размер потока : 1,06 Гбайт (77%)
Библиотека кодирования : XviD 1.2.0.dev47 (UTC 2006-11-01)
Аудио
Идентификатор : 1
Формат : AC-3
Формат/Информация : Audio Coding 3
Расширение режима : CM (complete main)
Параметр Endianness формата : Big
Идентификатор кодека : 2000
Продолжительность : 2 ч. 49 м.
Вид битрейта : Постоянный
Битрейт : 256 Кбит/сек
Каналы : 2 канала
Расположение каналов : Front: L R
Частота : 48,0 КГц
Битовая глубина : 16 бит
Метод сжатия : С потерями
Размер потока : 310 Мбайт (22%)
Выравнивание : Разделение по промежуткам
Продолжительность промежутка : 40 мс. (1,00 видеокадр)
Время предзагрузки промежутка : 500 мс.



Скачать Мост слишком далеко через торрент http://i66.fastpic.ru/big/2015/0301/89/84bac7c02e3d620a2dd0f62c33ba4f89.jpg Скачать, смотреть онлайн Мост слишком далеко бесплантно в хорошем качестве Описание: Этот фильм рассказывает подлинную историю боевой операции во время 2-ой Мировой войны, которая стоила много жизней, но мало что ... 10 10 4
Торрент: Зарегистрирован [2015-03-01 20:47] · скачан: 111 раз
Статус: √ проверено
Размер: 1.37 GB
Как cкачать? Как скачать Мост слишком далеко через торрент | UTorrent

28-11-2019 20:33  


Отключить вcю реклaмy на сайте, в т.ч. и в плеере онлайн просмотра!

    Дорогой пользователь! Огромная просьба, поблагодарите релизера, оцените раздачу и оставьте свои комментарий, если Вы скачали Мост слишком далеко через торрент бесплатно!!
    Комментировать посты могут только пользователи прошедшие не сложную регистрацию
    Показать сообщения:    


    Мост слишком далеко через торрент
    Скачать бесплатно Мост слишком далеко
    Мост слишком далеко скачать торрент
    Мост слишком далеко смотреть онлайн
    Cкачать фильм Мост слишком далеко бесплатно
    Мост слишком далеко скачать торрент в хорошем качестве
    Мост слишком далеко смотреть онлайн бесплатно в хорошем качестве
    Вы не можете начинать темы
    Вы не можете отвечать на сообщения
    Вы не можете редактировать свои сообщения
    Вы не можете удалять свои сообщения
    Вы не можете голосовать в опросах
    Вы не можете прикреплять файлы к сообщениям
    Вы можете скачивать файлы
    Мост слишком далеко / A Bridge Too Far [1977, драма, военный, исторический, DVDRip] [AVO] смотреть онлайн, скачать торрент picoco.icu