Доктор Стрэндж

Лицензия

Добыча

Дубляж

Дом дракона

1 сезон

Тор

Дубляж

В эфире

Дубляж

Там, где раки поют

MVO

Властелин колец

1 сезон

Ultimate

pack

Рекомендуем

30

Пиратка

ВАЖНО

ВАЖНО

Ghostwire

Пиратка

jed

RePack

nioh2

RePack

RDR2

RePack

NEED FOR SPEED™ PAYBACK

RePack

скачать торрент

Кинопоиск HD

Острые козырьки 6 сезон

6 сезон

FAR CRY 6

RePack

скачать торрент

Лицензия

скачать торрент

MVO

1

1 сезон

скачать торрент

1 сезон

скачать торрент

Лицензия

  

Леди Гамильтон / That Hamilton Woman (Александр Корда) [1941, драма, мелодрама, военный, история, BDRip 720p ] 2 x MVO, AVO

Леди Гамильтон через торрент 5050.piratbit.fun

Размер: 4.65 GB | Добавлен: 6 лет 7 мес. назад | Торрент скачан:4 раза
Смотреть онлайн | Скачать   

23-04-2016 14:17 Леди Гамильтон Скачать торрент  

Название: Леди Гамильтон
Оригинальное название: That Hamilton Woman
Год выпуска: 1941
Страна: Великобритания
Жанр: драма, мелодрама, военный, история
Продолжительность: 02:04:54
Перевод: профессиональный многоголосый, авторский

Режиссёр: Александр Корда

В ролях: Вивьен Ли, Лоуренс Оливье, Алан Маубрэй, Сара Оллгуд, Глэдис Купер, Генри Уилкоксон, Хезер Эйнджел, Холлиуэлл Хоббс, Гилберт Эмери, Майлз Мандер, Рональд Синклер, Луис Альберни, Норма Друри

Описание: Франция, Кале. Холодным вечером в одной из лавок за кражу бутылки вина арестована плохо одетая женщина. В тюремной камере она рассказывает о своей жизни и трагической любви. Это была печальная исповедь знаменитой Леди Гамильтон. История началась в тёплом Неаполе. Юная Эмма знакомится с послом Британии лордом Гамильтоном и вскоре выходит за него замуж. Брак по расчёту не смущает ни знатного немолодого лорда, ни юную красавицу. Их спокойному сосуществованию приходит конец, когда на одном из светских приёмов Эмма знакомится с адмиралом Нельсоном. Страстное чувство, овладевшее ими, было так сильно, что, несмотря на разговоры и осуждения высшего света, они стали жить как муж и жена. Оставаясь формально в браке, супруги обоих сочли за благо просто не замечать происходящего. Её счастье было недолгим, и после трагической гибели Нельсона в битве при Трафальгаре жизнь для Эммы потеряла весь смысл...



Качество: BDRip 720p Сравнение с исходником
Формат: MKV
Видео: MPEG-4 AVC, 4555 Kбит/с, 960x720, 24 кадра/с
Аудио 1: русский, AC3, 192 kbps, 2 ch, 48 kHz [профессиональный многоголосый, Фильм Престиж]
Аудио 2: русский, AC3, 192 kbps, 2 ch, 48 kHz [профессиональный многоголосый, ТК Домашний]
Аудио 3: русский, AC3, 192 kbps, 2 ch, 48 kHz [авторский, Алексей Михалёв]
Аудио 4: английский, AC3, 192 kbps, 2 ch, 48 kHz [оригинал]
Субтитры: английские
Общее
Уникальный идентификатор : 182144144360215640055968070178504940912 (0x8907AFA99C7E46349F1785F4C0EB9D70)
Полное имя : D:\Video\Леди Гамильтон.1941.BDRip.720p.mkv
Формат : Matroska
Версия формата : Version 4 / Version 2
Размер файла : 4,65 Гбайт
Продолжительность : 2 ч. 4 м.
Общий поток : 5326 Кбит/сек
Дата кодирования : UTC 2016-04-23 11:04:08
Программа кодирования : mkvmerge v8.2.0 ('World of Adventure') 64bit
Библиотека кодирования : libebml v1.3.1 + libmatroska v1.4.2

Видео
Идентификатор : 1
Формат : AVC
Формат/Информация : Advanced Video Codec
Профиль формата : [email protected]
Параметр CABAC формата : Да
Параметр ReFrames формата : 9 кадров
Идентификатор кодека : V_MPEG4/ISO/AVC
Продолжительность : 2 ч. 4 м.
Битрейт : 4555 Кбит/сек
Ширина : 960 пикселей
Высота : 720 пикселей
Соотношение сторон : 4:3
Режим частоты кадров : Постоянный
Частота кадров : 24,000 кадра/сек
Цветовое пространство : YUV
Субдискретизация насыщенности : 4:2:0
Битовая глубина : 8 бит
Тип развёртки : Прогрессивная
Бит/(Пиксели*Кадры) : 0.275
Размер потока : 3,97 Гбайт (86%)
Библиотека кодирования : x264 core 146 r2538 121396c
Настройки программы : cabac=1 / ref=9 / deblock=1:-3:-3 / analyse=0x3:0x113 / me=umh / subme=10 / psy=1 / psy_rd=1.00:0.15 / mixed_ref=1 / me_range=32 / chroma_me=1 / trellis=2 / 8x8dct=1 / cqm=0 / deadzone=21,11 / fast_pskip=1 / chroma_qp_offset=-3 / threads=6 / lookahead_threads=1 / sliced_threads=0 / nr=0 / decimate=1 / interlaced=0 / bluray_compat=0 / constrained_intra=0 / bframes=11 / b_pyramid=2 / b_adapt=2 / b_bias=0 / direct=1 / weightb=1 / open_gop=0 / weightp=2 / keyint=230 / keyint_min=23 / scenecut=40 / intra_refresh=0 / rc_lookahead=40 / rc=crf / mbtree=0 / crf=18.1 / qcomp=0.60 / qpmin=0 / qpmax=69 / qpstep=4 / vbv_maxrate=40000 / vbv_bufsize=50000 / crf_max=0.0 / nal_hrd=none / filler=0 / ip_ratio=1.40 / pb_ratio=1.30 / aq=1:1.00
Язык : English
Default : Да
Forced : Нет

Аудио #1
Идентификатор : 2
Формат : AC-3
Формат/Информация : Audio Coding 3
Расширение режима : CM (complete main)
Параметр Endianness формата : Big
Идентификатор кодека : A_AC3
Продолжительность : 2 ч. 4 м.
Вид битрейта : Постоянный
Битрейт : 192 Кбит/сек
Каналы : 2 канала
Расположение каналов : Front: L R
Частота : 48,0 КГц
Частота кадров : 31,250 кадров/сек (1536 spf)
Метод сжатия : С потерями
Размер потока : 172 Мбайт (4%)
Заголовок : MVO (Фильм Престиж)
Язык : Russian
Default : Да
Forced : Нет

Аудио #2
Идентификатор : 3
Формат : AC-3
Формат/Информация : Audio Coding 3
Расширение режима : CM (complete main)
Параметр Endianness формата : Big
Идентификатор кодека : A_AC3
Продолжительность : 2 ч. 4 м.
Вид битрейта : Постоянный
Битрейт : 192 Кбит/сек
Каналы : 2 канала
Расположение каналов : Front: L R
Частота : 48,0 КГц
Частота кадров : 31,250 кадров/сек (1536 spf)
Метод сжатия : С потерями
Размер потока : 172 Мбайт (4%)
Заголовок : MVO (ТК Домашний)
Язык : Russian
Default : Нет
Forced : Нет

Аудио #3
Идентификатор : 4
Формат : AC-3
Формат/Информация : Audio Coding 3
Расширение режима : CM (complete main)
Параметр Endianness формата : Big
Идентификатор кодека : A_AC3
Продолжительность : 2 ч. 4 м.
Вид битрейта : Постоянный
Битрейт : 192 Кбит/сек
Каналы : 2 канала
Расположение каналов : Front: L R
Частота : 48,0 КГц
Частота кадров : 31,250 кадров/сек (1536 spf)
Метод сжатия : С потерями
Размер потока : 172 Мбайт (4%)
Заголовок : AVO (Алексей Михалёв)
Язык : Russian
Default : Нет
Forced : Нет

Аудио #4
Идентификатор : 5
Формат : AC-3
Формат/Информация : Audio Coding 3
Расширение режима : CM (complete main)
Параметр Endianness формата : Big
Идентификатор кодека : A_AC3
Продолжительность : 2 ч. 4 м.
Вид битрейта : Постоянный
Битрейт : 192 Кбит/сек
Каналы : 2 канала
Расположение каналов : Front: L R
Частота : 48,0 КГц
Частота кадров : 31,250 кадров/сек (1536 spf)
Метод сжатия : С потерями
Размер потока : 172 Мбайт (4%)
Заголовок : Original
Язык : English
Default : Нет
Forced : Нет

Текст
Идентификатор : 6
Формат : UTF-8
Идентификатор кодека : S_TEXT/UTF8
Идентификатор кодека/Информация : UTF-8 Plain Text
Продолжительность : 2 ч. 2 м.
Битрейт : 80 бит/сек
Count of elements : 2102
Размер потока : 72,4 Кбайт (0%)
Заголовок : английский
Язык : English
Default : Нет
Forced : Нет



Скачать Леди Гамильтон через торрент http://s014.radikal.ru/i326/1604/d4/fd4c7e9d74b0.jpg Скачать, смотреть онлайн Леди Гамильтон бесплантно в хорошем качестве Описание: Франция, Кале. Холодным вечером в одной из лавок за кражу бутылки вина арестована плохо одетая женщина. В тюремной камере она ... 5 10 1
Info! Золотая раздача, скачанное не засчитывается.
Торрент: Зарегистрирован [2016-04-23 14:17] · скачан: 4 раз
Статус: √ проверено
Размер: 4.65 GB
Как cкачать? Как скачать Леди Гамильтон через торрент | UTorrent

% Раздел Тема Автор DL S | L
Классика зарубежного кино [ 14.32 GB ] Леди Гамильтон / That Hamilton Woman | MVO | 1080p msltel Скачать
1 | 0

28-11-2019 20:33  


Отключить вcю реклaмy на сайте, в т.ч. и в плеере онлайн просмотра!

    Дорогой пользователь! Огромная просьба, поблагодарите релизера, оцените раздачу и оставьте свои комментарий, если Вы скачали Леди Гамильтон через торрент бесплатно!!
    Комментировать посты могут только пользователи прошедшие не сложную регистрацию
    Показать сообщения:    


    Леди Гамильтон через торрент
    Скачать бесплатно Леди Гамильтон
    Леди Гамильтон скачать торрент
    Леди Гамильтон смотреть онлайн
    Cкачать фильм Леди Гамильтон бесплатно
    Леди Гамильтон скачать торрент в хорошем качестве
    Леди Гамильтон смотреть онлайн бесплатно в хорошем качестве
    Вы не можете начинать темы
    Вы не можете отвечать на сообщения
    Вы не можете редактировать свои сообщения
    Вы не можете удалять свои сообщения
    Вы не можете голосовать в опросах
    Вы не можете прикреплять файлы к сообщениям
    Вы можете скачивать файлы
    Леди Гамильтон / That Hamilton Woman [1941, драма, мелодрама, военный, история, BDRip 720p ] 2 x MVO, AVO смотреть онлайн, скачать торрент picoco.icu