Достать ножи: Стеклянная луковица

MVO

Добыча

Дубляж

Уэнсдэй

1 сезон

Тор

Дубляж

13 клиническая

1 сезон

Жестокая ночь

MVO

Одни из нас

1 сезон

Deluxe

pack

Рекомендуем

30

Пиратка

ВАЖНО

ВАЖНО

Ghostwire

Пиратка

jed

RePack

nioh2

RePack

RDR2

RePack

NEED FOR SPEED™ PAYBACK

RePack

скачать торрент

Кинопоиск HD

Острые козырьки 6 сезон

6 сезон

FAR CRY 6

RePack

скачать торрент

Лицензия

скачать торрент

MVO

1

1 сезон

скачать торрент

1 сезон

скачать торрент

Лицензия

  

Черепашки-ниндзя 2 / Teenage Mutant Ninja Turtles: Out of the Shadows (Дэйв Грин ) [2016, фантастика, боевик, комедия, UHDWEBRip 2160p] Дубляж - [Лицензия]

Черепашки-ниндзя 2 через торрент 5050.piratbit.fun

Размер: 51.76 GB | Добавлен: 6 лет назад | Торрент скачан:160 раз
Смотреть онлайн | Скачать | Поддержите нас   

18-01-2017 10:16 Черепашки-ниндзя 2 Скачать торрент  

Черепашки-ниндзя 2Teenage Mutant Ninja Turtles: Out of the Shadows«Raise some shell» Год выпуска: 2016
Страна: США, Гонконг, Китай, Канада
Жанр: фантастика, боевик, комедия, приключения
Продолжительность: 01:52:25
Перевод: Дубляж - [Лицензия]
Режиссер: Дэйв Грин
В ролях:
Меган Фокс (April O'Neil), Уилл Арнетт (Vernon Fenwick), Лора Линни (Chief Vincent), Стивен Амелл (Casey Jones), Ноэль Фишер (Michelangelo), Джереми Ховард (Donatello), Пит Пложек (Leonardo), Алан Ричсон (Raphael), Тайлер Перри (Baxter Stockman), Брайан Ти (Shredder), Стефен Фаррелли (Rocksteady), Гари Энтони Уильямс (Bebop)
Описание:
Долгое время черепашки-ниндзя скрывались от людей в лабиринтах городской канализации. На протяжении нескольких лет учитель Сплинтер обучал их боевым искусствам и прививал им чувство справедливости. В один прекрасный момент им пришлось подняться наверх, чтобы спасти Нью-Йорк от Шредера, предводителя Клана Футов, захватившего Влacть в Нью-Йорке. Вместе с отважным репортером Эйприл и ее оператором Верном, бесстрашные воины смогли одержать победу и очистить любимый город от преступности. Леонардо, Микеланджело, Рафаэль и Донателло нашли свое предназначение в этом мире и стали защитниками своего города. Они навели порядок в Нью-Йорке и с чистой совестью могли отправиться на покой, но однажды им вновь пришлось столкнуться с могущественным врагом, угрожающим их городу.
Рейтинг:

MPAA: PG-13 - Детям до 13 лет просмотр не желателен
Качество: UHDWEBRip 2160p
Формат: MKV
Видео: V_MPEGH/ISO/HEVC, 3840x2160 (16:9), 60135 kbps, 23,976 fps, 0,302 bpp
Аудио №1: английский / Atmos / TrueHD / 5080 kbps /
Аудио №2: русский / AC3 / 5.1 / 48 kHz / 640 kbps / ||
General
Unique ID : 223485595346296639438976191041190107672 (0xA821C290C79FB9ADAC4DBE4401861A18)
Complete name : Tеenage mutаnt ninjа turtlеs 2 (2160p h265).mkv
Format : Matroska
Format version : Version 4 / Version 2
File size : 51.8 GiB
Duration : 1 h 52 min
Overall bit rate mode : Variable
Overall bit rate : 65.9 Mb/s
Encoded date : UTC 2016-10-25 12:59:33
Writing application : mkvmerge v9.5.0 ('Quiet Fire') 64bit
Writing library : libebml v1.3.4 + libmatroska v1.4.5

Video
ID : 1
Format : HEVC
Format/Info : High Efficiency Video Coding
Format profile : Main [email protected]@Main
Codec ID : V_MPEGH/ISO/HEVC
Duration : 1 h 52 min
Bit rate : 60.1 Mb/s
Width : 3 840 pixels
Height : 2 160 pixels
Display aspect ratio : 16:9
Frame rate mode : Constant
Frame rate : 23.976 (24000/1001) FPS
Color space : YUV
Chroma subsampling : 4:2:0
Bit depth : 10 bits
Bits/(Pixel*Frame) : 0.302
Stream size : 47.2 GiB (91%)
Writing library : x265 1.9+3-63308f7658c3:[Windows][GCC 5.2.0][64 bit] 10bit
Encoding settings : wpp / ctu=64 / min-cu-size=8 / max-tu-size=32 / tu-intra-depth=1 / tu-inter-depth=1 / me=1 / subme=2 / merange=57 / no-rect / no-amp / max-merge=2 / temporal-mvp / no-early-skip / rdpenalty=0 / no-tskip / no-tskip-fast / strong-intra-smoothing / no-lossless / no-cu-lossless / no-constrained-intra / no-fast-intra / open-gop / no-temporal-layers / interlace=0 / keyint=240 / min-keyint=24 / scenecut=40 / rc-lookahead=20 / lookahead-slices=8 / bframes=4 / bframe-bias=0 / b-adapt=2 / ref=3 / limit-refs=3 / no-limit-modes / weightp / no-weightb / aq-mode=1 / qg-size=32 / aq-strength=1.00 / cbqpoffs=0 / crqpoffs=0 / rd=3 / psy-rd=2.00 / rdoq-level=0 / psy-rdoq=0.00 / signhide / deblock / sao / no-sao-non-deblock / b-pyramid / cutree / no-intra-refresh / rc=abr / bitrate=61000 / qcomp=0.60 / qpmin=0 / qpmax=51 / qpstep=4 / ipratio=1.40 / pbratio=1.30
Default : Yes
Forced : No
Color range : Limited
Color primaries : BT.709
Transfer characteristics : BT.709
Matrix coefficients : BT.601

Audio #1
ID : 2
Format : Atmos / TrueHD
Codec ID : A_TRUEHD
Duration : 1 h 52 min
Bit rate mode : Variable
Bit rate : 5 081 kb/s
Maximum bit rate : 8 040 kb/s
Channel(s) : Object Based / 8 channels
Channel positions : Object Based / Front: L C R, Side: L R, Back: L R, LFE
Sampling rate : / 48.0 kHz
Frame rate : 1 200.000 FPS (40 spf)
Compression mode : Lossless
Delay relative to video : 16 s 995 ms
Stream size : 3.98 GiB (8%)
Language : English
Default : No
Forced : No

Audio #2
ID : 3
Format : AC-3
Format/Info : Audio Coding 3
Mode extension : CM (complete main)
Format settings, Endianness : Big
Codec ID : A_AC3
Duration : 1 h 52 min
Bit rate mode : Constant
Bit rate : 640 kb/s
Channel(s) : 6 channels
Channel positions : Front: L C R, Side: L R, LFE
Sampling rate : 48.0 kHz
Frame rate : 31.250 FPS (1536 spf)
Compression mode : Lossy
Delay relative to video : 16 s 995 ms
Stream size : 513 MiB (1%)
Language : Russian
Default : Yes
Forced : No


Скриншотыскриншот   скриншот   скриншот   скриншот   скриншот   скриншот   скриншот  



Скачать Черепашки-ниндзя 2 через торрент http://i91.fastpic.ru/big/2017/0118/b8/0962c55e4d217f85c792bf050a16dcb8.png Скачать, смотреть онлайн Черепашки-ниндзя 2 бесплантно в хорошем качестве Описание: Долгое время черепашки-ниндзя скрывались от людей в лабиринтах городской канализации. На протяжении нескольких лет учитель ... 7.8 10 4
Info! Золотая раздача, скачанное не засчитывается.
Торрент: Зарегистрирован [2017-01-18 10:16] · скачан: 160 раз
Статус: √ проверено
Размер: 51.76 GB
Как cкачать? Как скачать Черепашки-ниндзя 2 через торрент | UTorrent

% Раздел Тема Автор DL S | L
Фильмы [HD 720p, 1080p] (Хороший звук DUB, MVO) [ 7.37 GB ] Черепашки-ниндзя 2 / Teenage Mutant Ninja Turtles: Out of the Shadows | Лицензия | 1080p bober100 Скачать
1 | 0
Ultra HD (UHD: 2K, 4K, 8K) [ 59.98 GB ] Черепашки-ниндзя 2 / Teenage Mutant Ninja Turtles: Out of the Shadows | Лицензия | 2160p bober100 Скачать
1 | 0
Ultra HD (UHD: 2K, 4K, 8K) [ 64.44 GB ] Черепашки-ниндзя 2 / Teenage Mutant Ninja Turtles: Out of the Shadows | Лицензия | 2160p bober100 Скачать
1 | 0
3D Фильмы [ 16.29 GB ] Черепашки-ниндзя 2 в 3D / Teenage Mutant Ninja Turtles: Out of the Shadows 3D | Лицензия | 1080p sheker187 Скачать
1 | 0
Фильмы (HD 720p, 1080p) (48-60 fps) [ 6.1 GB ] Черепашки-ниндзя 2 / Teenage Mutant Ninja Turtles: Out of the Shadows | DUB | 720p 60 fps от еnvy / NNNB еnvy Скачать
2 | 0
Фильмы (WEB-DL 720p, 1080p) [ 3.99 GB ] Черепашки-ниндзя 2 / Teenage Mutant Ninja Turtles: Out of the Shadows | iTunes | 1080p, Дубляж White Smoke Скачать
1 | 0
Фильмы 2016 [DVDrip, WEB-DLRip, HDrip] (DUB, MVO) [ 2.18 GB ] Черепашки-ниндзя 2 / Teenage Mutant Ninja Turtles: Out of the Shadows | iTunes | DLRip , Дубляж Twi7ter Скачать
1 | 0

28-11-2019 20:33  


Отключить вcю реклaмy на сайте, в т.ч. и в плеере онлайн просмотра!


    Дорогой пользователь! Огромная просьба, поблагодарите релизера, оцените раздачу и оставьте свои комментарий, если Вы скачали Черепашки-ниндзя 2 через торрент бесплатно!!
    Комментировать посты могут только пользователи прошедшие не сложную регистрацию
    Показать сообщения:    


    Черепашки-ниндзя 2 через торрент
    Скачать бесплатно Черепашки-ниндзя 2
    Черепашки-ниндзя 2 скачать торрент
    Черепашки-ниндзя 2 смотреть онлайн
    Cкачать фильм Черепашки-ниндзя 2 бесплатно
    Черепашки-ниндзя 2 скачать торрент в хорошем качестве
    Черепашки-ниндзя 2 смотреть онлайн бесплатно в хорошем качестве
    Вы не можете начинать темы
    Вы не можете отвечать на сообщения
    Вы не можете редактировать свои сообщения
    Вы не можете удалять свои сообщения
    Вы не можете голосовать в опросах
    Вы не можете прикреплять файлы к сообщениям
    Вы можете скачивать файлы
    Черепашки-ниндзя 2 / Teenage Mutant Ninja Turtles: Out of the Shadows [2016, фантастика, боевик, комедия, UHDWEBRip 2160p] Дубляж - [Лицензия] смотреть онлайн, скачать торрент picoco.icu