Достать ножи: Стеклянная луковица

MVO

Добыча

Дубляж

Уэнсдэй

1 сезон

Тор

Дубляж

13 клиническая

1 сезон

Жестокая ночь

MVO

Одни из нас

1 сезон

Deluxe

pack

Рекомендуем

30

Пиратка

ВАЖНО

ВАЖНО

Ghostwire

Пиратка

jed

RePack

nioh2

RePack

RDR2

RePack

NEED FOR SPEED™ PAYBACK

RePack

скачать торрент

Кинопоиск HD

Острые козырьки 6 сезон

6 сезон

FAR CRY 6

RePack

скачать торрент

Лицензия

скачать торрент

MVO

1

1 сезон

скачать торрент

1 сезон

скачать торрент

Лицензия

  

Планета Земля 2 / Planet Earth II / Серии 1-6 из 6 (Джастин Андерсон) [2016 г., Документальный, научно-познавательный, природа, флора, фауна, UHD BDRemux 2160p] VO

Планета Земля 2 через торрент 5050.piratbit.fun

Раздают: 2 [ 6 KB/s ]
Размер: 115.01 GB | Добавлен: 5 лет 2 мес. назад | Торрент скачан:421 раз
Смотреть онлайн | Скачать | Поддержите нас   

05-11-2017 12:42 Планета Земля 2 Скачать торрент  

Планета Земля 2 / Planet Earth II
Год выпуска: 2016
Страна: Великобритания, BBC NHU, BBC America, BBC Television Centre, ZDF
Жанр: Документальный, научно-познавательный, природа, флора, фауна
Продолжительность: ~00:51:00 серия
Перевод: Профессиональный (одноголосый, закадровый) (студия «Омикрон» В. Петренко)
Субтитры: Русские (Full-length), Украинские (Full-length), Английские (SDH)

Режиссер: Джастин Андерсон
Ведущий: Дэвид Аттенборо

rating

Описание: Создатели сериалов "Планета Земля" и "Голубая планета" сняли новый фильм, показывающий Землю такой, какой ее еще никто не видел прежде. Невероятные по красоте пейзажи и самые заповедные и малоизученные уголки нашей планеты. Четыре года напряженной работы и беспрецедентный для документального фильма бюджет позволили создать уникальный по масштабности фильм. А революционные режимы сверхскоростной съемки и детализации картинки, сделали возможным показать великолепие нашей природы во всех подробностях.
Самые захватывающие и фантастические эпизоды из популярной документальной серии Планета Земля 2 (Planet Earth II) оживут на огромном 4K-Ultra-HD полотне под эпичную музыку симфонического оркестра. Музыку к этой невероятной серии создали такие известнейшие композиторы, как Ханс Циммер, Джаша Клебе и Джейкоб Ши. Шоу воплотят в жизнь как ультрасовременные технологии, так и Филармония столицы Праги, состоящая из восьмидесяти музыкантов во главе с дирижером Мэтью Фриманом. Планета Земля 2 – документальный мини-сериал производства BBC, который демонстрирует невероятные по красоте пейзажи, заповедные и малоизученные уголки Земли. Планета Земля II стала первым сериалом, выпущенным телеканалом BBC в формате сверхвысокой четкости (4K). Первый эпизод посмотрели 12,26 млн зрителей только в Великобритании, что стало рекордным показателем для документальных фильмов о природе. Кристофер Хутон из The Independent написал о сериале: “Без сомнения, это лучший документальный фильм о природе и один из лучших телевизионных проектов вообще”.

Качество: UHD BDRemux 2160p
Формат: MKV
Видео: HEVC/H.265, 3840x2160p, (16:9), 43.0 Mb/s, 23.976 fps
Аудио#1: DTS-HD MA, 6 ch, 4067 Kbps - Русский, студия «Омикрон» В. Петренко
Аудио#2: DTS-HD MA, 6 ch, 3840 Kbps - Украинский, Ю. Онищенко
Аудио#3: DTS-HD MA, 6 ch, 2301 Kbps - Английский
Релиз от:
Оригинальная озвучка 1 персона - Дэвид Аттенборо.

За появление озвучки «Омикрон» В. Петренко спасибо:
Scorpion26, habal_garmin, banan58, Sytnik, lokolex, caban_2001, McClaud, yuriker, PinCho, qwerty2014, v41, ShaKh, Кириллка, lasvegas, Buxy, gorett, ek0, vrvz, Portos, Turko, stallk, aleksbmf, Rain, Максим360, laser10, iiiMia, superbizho, Igor_M, alvane, santa143, TimT, DOMINO, oopsmsk, AlexRozen, зема2011, Badj, RYBCHENKO, terminal, LLIukO, SpaceShuttle, svnnvs, ayazad, fire_lizard, misterr_, BaseJumper, Plesha, alrmothe, GoAInSIDE, game47, kornilov7, FuzzzzyBoy, nucl2, Wet21, diler7, Milvus, Ant1k91, Markalay, samos2001, YAGOUAROUNDI.

За появление Украинской озвучки, Ю. Онищенко спасибо:
трекеру HURTOM.

В 6м эпизоде отсутствует несколько фраз перевода.
Video
ID : 1
Format : HEVC
Format/Info : High Efficiency Video Coding
Format profile : Main [email protected]@High
Codec ID : V_MPEGH/ISO/HEVC
Duration : 53 min 5 s
Bit rate : 43.0 Mb/s
Width : 3 840 pixels
Height : 2 160 pixels
Display aspect ratio : 16:9
Frame rate mode : Constant
Frame rate : 23.976 (24000/1001) FPS
Color space : YUV
Chroma subsampling : 4:2:0 (Type 2)
Bit depth : 10 bits
Bits/(Pixel*Frame) : 0.216
Stream size : 16.0 GiB (81%)
Title : PE_II_EP01_ISLANDS_BD_UHD_HDR_REMUX-BLUEBIRD
Default : Yes
Forced : No
Color range : Limited
Color primaries : BT.2020
Transfer characteristics : PQ
Matrix coefficients : BT.2020 non-constant
Mastering display color pri : R: x=0.000000 y=0.000000, G: x=0.000000 y=0.000000, B: x=0.000000 y=0.000000, White point: x=0.000000 y=0.000000
Mastering display luminance : min: 0.0000 cd/m2, max: 0.0000 cd/m2

Audio #1
ID : 2
Format : DTS
Format/Info : Digital Theater Systems
Format profile : MA / Core
Mode : 16
Format settings, Endianness : Big
Codec ID : A_DTS
Duration : 53 min 4 s
Bit rate mode : Variable / Constant
Bit rate : 4 067 kb/s / 1 509 kb/s
Channel(s) : 6 channels
Channel positions : Front: L C R, Side: L R, LFE
Sampling rate : 48.0 kHz
Frame rate : 93.750 FPS (512 SPF)
Bit depth : 24 bits
Compression mode : Lossless / Lossy
Stream size : 1.51 GiB (8%)
Title : [VO] DTS-HD MA 5.1 @ 4068 kbps (V. Petrenko - Omikron)
Language : Russian
Default : No
Forced : No

Audio #2
ID : 3
Format : DTS
Format/Info : Digital Theater Systems
Format profile : MA / Core
Mode : 16
Format settings, Endianness : Big
Codec ID : A_DTS
Duration : 53 min 4 s
Bit rate mode : Variable / Constant
Bit rate : 3 840 kb/s / 1 509 kb/s
Channel(s) : 6 channels
Channel positions : Front: L C R, Side: L R, LFE
Sampling rate : 48.0 kHz
Frame rate : 93.750 FPS (512 SPF)
Bit depth : 24 bits
Compression mode : Lossless / Lossy
Stream size : 1.41 GiB (7%)
Title : [VO] DTS-HD MA 5.1 @ 3810 kbps (J. Onyshchenko)
Language : Ukrainian
Default : No
Forced : No

Audio #3
ID : 4
Format : DTS
Format/Info : Digital Theater Systems
Format profile : MA / Core
Mode : 16
Format settings, Endianness : Big
Codec ID : A_DTS
Duration : 53 min 4 s
Bit rate mode : Variable / Constant
Bit rate : 2 301 kb/s / 1 509 kb/s
Channel(s) : 6 channels
Channel positions : Front: L C R, Side: L R, LFE
Sampling rate : 48.0 kHz
Frame rate : 93.750 FPS (512 SPF)
Bit depth : 16 bits
Compression mode : Lossless / Lossy
Stream size : 873 MiB (4%)
Title : [ORIGINAL] DTS-HD MA 5.1 @ 2301 kbps
Language : English
Default : No
Forced : No

Text #1
ID : 5
Format : UTF-8
Codec ID : S_TEXT/UTF8
Codec ID/Info : UTF-8 Plain Text
Duration : 51 min 36 s
Bit rate : 65 b/s
Count of elements : 319
Stream size : 24.8 KiB (0%)
Title : Full-length
Language : Russian
Default : No
Forced : No

Text #2
ID : 6
Format : UTF-8
Codec ID : S_TEXT/UTF8
Codec ID/Info : UTF-8 Plain Text
Duration : 51 min 36 s
Bit rate : 69 b/s
Count of elements : 320
Stream size : 26.2 KiB (0%)
Title : Full-length
Language : Ukrainian
Default : No
Forced : No

Text #3
ID : 7
Format : PGS
Codec ID : S_HDMV/PGS
Codec ID/Info : Picture based subtitle format used on BDs/HD-DVDs
Duration : 52 min 18 s
Bit rate : 25.1 kb/s
Count of elements : 710
Stream size : 9.39 MiB (0%)
Title : SDH
Language : English
Default : No
Forced : No

Menu
00:00:00.000 : en:00:00:00.000
00:12:26.245 : en:00:12:26.245
00:18:49.253 : en:00:18:49.253
00:33:45.023 : en:00:33:45.023
00:43:04.582 : en:00:43:04.582
Скриншоты



Скачать Планета Земля 2 через торрент http://i98.fastpic.ru/big/2017/1105/48/fd8b6e9136ff1a0aa57d895ccb47bb48.png Скачать, смотреть онлайн Планета Земля 2 бесплантно в хорошем качестве Описание: Создатели сериалов "Планета Земля" и "Голубая планета" сняли новый фильм, показывающий Землю такой, какой ее еще никто не видел ... 9.3 10 14
Info! Золотая раздача, скачанное не засчитывается.
Торрент: Зарегистрирован [2017-11-05 12:42] · скачан: 421 раз
Статус: √ проверено
Размер: 115.01 GB
Как cкачать? Как скачать Планета Земля 2 через торрент | UTorrent

% Раздел Тема Автор DL S | L
Ultra HD (UHD: 2K, 4K, 8K) [ 56.34 GB ] Планета Земля 2 / Planet Earth II / Серии 1-6 из 6 | | 2160p sheker187 Скачать
1 | 0
BBC [ 2.2 GB ] Планета Земля 2 / Planet Earth II / 1-3 серий из 6 | | HDRip killermax2013 Скачать
1 | 0
BBC [ 5.28 GB ] Планета Земля 2 / Planet Earth II / 1-6 серий из 6 | | BDRip bober100 Скачать
1 | 0
BBC [ 23.22 GB ] Планета Земля 2 | | 720p от NNNB _denis_100 Скачать
1 | 0

28-11-2019 20:33  


Отключить вcю реклaмy на сайте, в т.ч. и в плеере онлайн просмотра!

05-11-2017 15:18 Планета Земля 2 Скачать торрент  

чет многовато весит



05-11-2017 16:25 Планета Земля 2 Скачать торрент  

Ме4татель писал(а):

чет многовато весит

Так UHD же....



06-11-2017 14:49 Планета Земля 2 Скачать торрент  




    Дорогой пользователь! Огромная просьба, поблагодарите релизера, оцените раздачу и оставьте свои комментарий, если Вы скачали Планета Земля 2 через торрент бесплатно!!
    Комментировать посты могут только пользователи прошедшие не сложную регистрацию
    Показать сообщения:    


    Планета Земля 2 через торрент
    Скачать бесплатно Планета Земля 2
    Планета Земля 2 скачать торрент
    Планета Земля 2 смотреть онлайн
    Cкачать фильм Планета Земля 2 бесплатно
    Планета Земля 2 скачать торрент в хорошем качестве
    Планета Земля 2 смотреть онлайн бесплатно в хорошем качестве
    Вы не можете начинать темы
    Вы не можете отвечать на сообщения
    Вы не можете редактировать свои сообщения
    Вы не можете удалять свои сообщения
    Вы не можете голосовать в опросах
    Вы не можете прикреплять файлы к сообщениям
    Вы можете скачивать файлы
    Планета Земля 2 / Planet Earth II / Серии 1-6 из 6 [2016 г., Документальный, научно-познавательный, природа, флора, фауна, UHD BDRemux 2160p] VO смотреть онлайн, скачать торрент picoco.icu