Достать ножи: Стеклянная луковица

MVO

Добыча

Дубляж

Уэнсдэй

1 сезон

Тор

Дубляж

13 клиническая

1 сезон

Жестокая ночь

MVO

Одни из нас

1 сезон

Deluxe

pack

Рекомендуем

30

Пиратка

ВАЖНО

ВАЖНО

Ghostwire

Пиратка

jed

RePack

nioh2

RePack

RDR2

RePack

NEED FOR SPEED™ PAYBACK

RePack

скачать торрент

Кинопоиск HD

Острые козырьки 6 сезон

6 сезон

FAR CRY 6

RePack

скачать торрент

Лицензия

скачать торрент

MVO

1

1 сезон

скачать торрент

1 сезон

скачать торрент

Лицензия

  

В сердце моря / In the Heart of the Sea (Рон Ховард ) [2015, боевик, триллер, драма, UHD BDRemux 2160p] Дубляж + 2xAVO [Лицензия]

В сердце моря через торрент 5050.piratbit.fun

Размер: 53.13 GB | Добавлен: 5 лет 2 мес. назад | Торрент скачан:124 раза
Смотреть онлайн | Скачать | Поддержите нас   

16-11-2017 12:02 В сердце моря Скачать торрент  

В сердце моря / In the Heart of the Sea

Год выпуска: 2015
Страна: США, Австралия, Испания
Жанр: боевик, триллер, драма, приключения, биография, история
Продолжительность: 02:01:43
Перевод: Дублированный (Лицензия BD CEE), Авторский (одноголосый, закадровый) (Д. Есарев, Ю. Живов)
Субтитры: Русские (Full-length *2, Forced), Украинские (Forced), Английские
Режиссер: Рон Ховард
В ролях:

Крис Хемсворт (Owen Chase), Бенджамин Уокер (George Pollard), Киллиан Мёрфи (Matthew Joy), Брендан Глисон (Tom Nickerson), Бен Уишоу (Herman Melville), Мишель Фэйрли (Mrs. Nickerson), Том Холланд (Thomas Nickerson), Пол Андерсон (Caleb Chappel), Фрэнк Диллэйн (Henry Coffin), Джозеф Моул (Benjamin Lawrence), Эдвард Эшли (Barzillai Ray), Сэм Кили (Ramsdell)
Описание:
В 1819 году американский корабль «Эссекс» с командой из двух десятков человек на борту отправился из порта в штате Массачусетс на китобойный промысел. Осенью 1820-го охота была прервана атакой гигантского кашалота на судно, в результате чего морякам пришлось пересесть в шлюпки. В течение трех с лишним месяцев они боролись за выживание посреди океана...
Рейтинг:
rating
MPAA: PG-13 - Детям до 13 лет просмотр не желателен
Качество: UHD BDRemux 2160p
Формат: MKV
Видео: HEVC/H.265, 3840x2160p, (16:9), 46.8 Mb/s, 23,976 fps
Аудио: AC3, 6 ch, 448 kbps - Русский, Дубляж
Аудио: DTS-HD-MA, 8 ch, 5135 kbps - Русский, Д. Есарев
Аудио: DTS-HD-MA, 8 ch, 5163 kbps - Русский, Ю. Живов
Аудио: AC3, 2 ch, 192 kbps - Украинский
Аудио: TrueHD-Atmos, 8 ch, 4703 kbps - Английский
Навигация по главам: есть
Релиз от:
Video
ID : 1
Format : HEVC
Format/Info : High Efficiency Video Coding
Format profile : Main [email protected]@High
Codec ID : V_MPEGH/ISO/HEVC
Duration : 2 h 1 min
Bit rate : 46.8 Mb/s
Width : 3 840 pixels
Height : 2 160 pixels
Display aspect ratio : 16:9
Frame rate mode : Constant
Frame rate : 23.976 (24000/1001) FPS
Color space : YUV
Chroma subsampling : 4:2:0 (Type 2)
Bit depth : 10 bits
Bits/(Pixel*Frame) : 0.235
Stream size : 39.7 GiB (75%)
Title : I_T_H_O_T_SEA_BD_UHD_HDR_REMUX-BLUEBIRD
Default : Yes
Forced : No
Color range : Limited
Color primaries : BT.2020
Transfer characteristics : PQ
Matrix coefficients : BT.2020 non-constant
Mastering display color pri : R: x=0.680000 y=0.320000, G: x=0.265000 y=0.690000, B: x=0.150000 y=0.060000, White point: x=0.312700 y=0.329000
Mastering display luminance : min: 0.0050 cd/m2, max: 4000.0000 cd/m2
Maximum Content Light Level : 284 cd/m2
Maximum Frame-Average Light : 145 cd/m2

Audio #1
ID : 2
Format : AC-3
Format/Info : Audio Coding 3
Format settings, Endianness : Big
Codec ID : A_AC3
Duration : 2 h 1 min
Bit rate mode : Constant
Bit rate : 448 kb/s
Channel(s) : 6 channels
Channel positions : Front: L C R, Side: L R, LFE
Sampling rate : 48.0 kHz
Frame rate : 31.250 FPS (1536 SPF)
Bit depth : 16 bits
Compression mode : Lossy
Stream size : 390 MiB (1%)
Title : [Дубляж] DD 5.1 @ 448 kbps
Language : Russian
Service kind : Complete Main
Default : Yes
Forced : No

Audio #2
ID : 3
Format : AC-3
Format/Info : Audio Coding 3
Format settings, Endianness : Big
Codec ID : A_AC3
Duration : 2 h 1 min
Bit rate mode : Constant
Bit rate : 192 kb/s
Channel(s) : 2 channels
Channel positions : Front: L R
Sampling rate : 48.0 kHz
Frame rate : 31.250 FPS (1536 SPF)
Bit depth : 16 bits
Compression mode : Lossy
Stream size : 167 MiB (0%)
Title : [Дубляж] DD 2.0 @ 192 kbps
Language : Ukrainian
Service kind : Complete Main
Default : No
Forced : No

Audio #3
ID : 4
Format : DTS
Format/Info : Digital Theater Systems
Format profile : MA / Core
Mode : 16
Format settings, Endianness : Big
Codec ID : A_DTS
Duration : 2 h 1 min
Bit rate mode : Variable / Constant
Bit rate : 5 135 kb/s / 1 509 kb/s
Channel(s) : 8 channels / 6 channels
Channel positions : Front: L C R, Side: L R, Back: L R, LFE / Front: L C R, Side: L R, LFE
Sampling rate : 48.0 kHz
Frame rate : 93.750 FPS (512 SPF)
Bit depth : 24 bits
Compression mode : Lossless / Lossy
Stream size : 4.36 GiB (8%)
Title : [VO] DTS-HD-MA 7.1 @ 5136 kbps (D. Esarev)
Language : Russian
Default : No
Forced : No

Audio #4
ID : 5
Format : DTS
Format/Info : Digital Theater Systems
Format profile : MA / Core
Mode : 16
Format settings, Endianness : Big
Codec ID : A_DTS
Duration : 2 h 1 min
Bit rate mode : Variable / Constant
Bit rate : 5 163 kb/s / 1 509 kb/s
Channel(s) : 8 channels / 6 channels
Channel positions : Front: L C R, Side: L R, Back: L R, LFE / Front: L C R, Side: L R, LFE
Sampling rate : 48.0 kHz
Frame rate : 93.750 FPS (512 SPF)
Bit depth : 24 bits
Compression mode : Lossless / Lossy
Stream size : 4.39 GiB (8%)
Title : [VO] DTS-HD-MA 7.1 @ 5164 kbps (Y. Zhyvov)
Language : Russian
Default : No
Forced : No

Audio #5
ID : 6
Format : TrueHD
Format profile : TrueHD+Atmos / TrueHD
Codec ID : A_TRUEHD
Duration : 2 h 1 min
Bit rate mode : Variable
Bit rate : 4 703 kb/s
Maximum bit rate : 7 719 kb/s
Channel(s) : Object Based / 8 channels
Channel positions : Object Based / Front: L C R, Side: L R, Back: L R, LFE
Sampling rate : / 48.0 kHz
Frame rate : 1 200.000 FPS (40 SPF)
Compression mode : Lossless
Delay relative to video : 1 ms
Stream size : 4.00 GiB (8%)
Title : [ORIGINAL] ATMOS 7.1 @ 5087 kbps
Language : English
Default : No
Forced : No

Text #1
ID : 7
Format : UTF-8
Codec ID : S_TEXT/UTF8
Codec ID/Info : UTF-8 Plain Text
Duration : 1 h 51 min
Bit rate : 84 b/s
Count of elements : 1109
Stream size : 68.8 KiB (0%)
Title : Full-length v.1
Language : Russian
Default : No
Forced : No

Text #2
ID : 8
Format : UTF-8
Codec ID : S_TEXT/UTF8
Codec ID/Info : UTF-8 Plain Text
Duration : 1 h 51 min
Bit rate : 82 b/s
Count of elements : 1064
Stream size : 67.6 KiB (0%)
Title : Full-length v.2
Language : Russian
Default : No
Forced : No

Text #3
ID : 9
Format : PGS
Codec ID : S_HDMV/PGS
Codec ID/Info : Picture based subtitle format used on BDs/HD-DVDs
Duration : 2 h 0 min
Bit rate : 31.9 kb/s
Count of elements : 2994
Stream size : 27.5 MiB (0%)
Title : Full-length
Language : English
Default : No
Forced : No

Text #4
ID : 10
Format : UTF-8
Codec ID : S_TEXT/UTF8
Codec ID/Info : UTF-8 Plain Text
Duration : 1 h 50 min
Bit rate : 2 b/s
Count of elements : 29
Stream size : 1.79 KiB (0%)
Title : Forced
Language : Russian
Default : Yes
Forced : Yes

Text #5
ID : 11
Format : UTF-8
Codec ID : S_TEXT/UTF8
Codec ID/Info : UTF-8 Plain Text
Duration : 1 h 50 min
Bit rate : 2 b/s
Count of elements : 31
Stream size : 1.88 KiB (0%)
Title : Forced
Language : Ukrainian
Default : No
Forced : No

Menu
00:00:00.000 : en:Chapter 1
00:12:05.516 : en:Chapter 2
00:21:17.734 : en:Chapter 3
00:33:29.966 : en:Chapter 4
00:42:35.010 : en:Chapter 5
00:51:30.712 : en:Chapter 6
01:06:43.833 : en:Chapter 7
01:13:12.012 : en:Chapter 8
01:23:21.287 : en:Chapter 9
01:33:45.870 : en:Chapter 10
01:43:20.027 : en:Chapter 11
01:52:58.772 : en:Chapter 12



Скачать В сердце моря через торрент http://i97.fastpic.ru/big/2017/1116/45/267d2659764e4de96c0a70d8833cf045.png Скачать, смотреть онлайн В сердце моря бесплантно в хорошем качестве Описание: В 1819 году американский корабль «Эссекс» с командой из двух десятков человек на борту отправился из порта в штате Массачусетс на ... 8.2 10 5
Info! Золотая раздача, скачанное не засчитывается.
Торрент: Зарегистрирован [2017-11-16 12:02] · скачан: 124 раз
Статус: √ проверено
Размер: 53.13 GB
Как cкачать? Как скачать В сердце моря через торрент | UTorrent

% Раздел Тема Автор DL S | L
Ultra HD (UHD: 2K, 4K, 8K) [ 58.43 GB ] В сердце моря / In the Heart of the Sea | Лицензия | 2160p sheker187 Скачать
1 | 0
3D Фильмы [ 16.43 GB ] В сердце моря 3Д / In the Heart of the Sea 3D | Лицензия | 1080p bober100 Скачать
1 | 0
Ultra HD (UHD: 2K, 4K, 8K) [ 41.19 GB ] В сердце моря / In the Heart of the Sea | DUB | 2160p SDR sheker187 Скачать
1 | 0
Фильмы 2015 [DVDrip, WEB-DLRip, HDrip] [ 1.45 GB ] В сердце моря / In the Heart of the Sea | Лицензия | BDRip-AVC от potroks potroks Скачать
1 | 0
Фильмы [HD 720p, 1080p] (Хороший звук DUB, MVO) [ 11.54 GB ] В сердце моря / In the Heart of the Sea | DUB | 1080p от еnvy / NNNB еnvy Скачать
17 | 1
Фильмы 2015 [DVDrip, WEB-DLRip, HDrip] [ 745 MB ] В сердце моря / In the Heart of the Sea | iTunes | HDRip by _Один_777 Один 777 Скачать
1 | 0
3D Фильмы [ 25.32 GB ] В сердце моря в 3Д / In the Heart of the Sea 3D | iTunes OverUnder | 1080p serega768 Скачать
1 | 0

28-11-2019 20:33  


Отключить вcю реклaмy на сайте, в т.ч. и в плеере онлайн просмотра!

    Дорогой пользователь! Огромная просьба, поблагодарите релизера, оцените раздачу и оставьте свои комментарий, если Вы скачали В сердце моря через торрент бесплатно!!
    Комментировать посты могут только пользователи прошедшие не сложную регистрацию
    Показать сообщения:    


    В сердце моря через торрент
    Скачать бесплатно В сердце моря
    В сердце моря скачать торрент
    В сердце моря смотреть онлайн
    Cкачать фильм В сердце моря бесплатно
    В сердце моря скачать торрент в хорошем качестве
    В сердце моря смотреть онлайн бесплатно в хорошем качестве
    Вы не можете начинать темы
    Вы не можете отвечать на сообщения
    Вы не можете редактировать свои сообщения
    Вы не можете удалять свои сообщения
    Вы не можете голосовать в опросах
    Вы не можете прикреплять файлы к сообщениям
    Вы можете скачивать файлы
    В сердце моря / In the Heart of the Sea [2015, боевик, триллер, драма, UHD BDRemux 2160p] Дубляж + 2xAVO [Лицензия] смотреть онлайн, скачать торрент picoco.icu