Достать ножи: Стеклянная луковица

MVO

Добыча

Дубляж

Уэнсдэй

1 сезон

Тор

Дубляж

13 клиническая

1 сезон

Жестокая ночь

MVO

Одни из нас

1 сезон

Deluxe

pack

Рекомендуем

30

Пиратка

ВАЖНО

ВАЖНО

Ghostwire

Пиратка

jed

RePack

nioh2

RePack

RDR2

RePack

NEED FOR SPEED™ PAYBACK

RePack

скачать торрент

Кинопоиск HD

Острые козырьки 6 сезон

6 сезон

FAR CRY 6

RePack

скачать торрент

Лицензия

скачать торрент

MVO

1

1 сезон

скачать торрент

1 сезон

скачать торрент

Лицензия

  

Каратель / The Punisher / Сезон 1 / Серии 1-13 из 13 (Энди Годдард, Марк Йобст, Кари Скогланд) [2017, фантастика, боевик, триллер, драма, криминал, приключения, UHD WEBRip 2160p ] MVO [BaibaKo]

Каратель через торрент 5050.piratbit.fun

Размер: 57.69 GB | Добавлен: 5 лет 1 мес. назад | Торрент скачан:88 раз
Смотреть онлайн | Скачать | Поддержите нас   

01-12-2017 05:34 Каратель Скачать торрент  

Каратель / The PunisherГод выпуска: 2017
Страна: США
Жанр: фантастика, боевик, триллер, драма, криминал, приключения
Продолжительность: ~ 00:50:00
Перевод: Профессиональный многоголосый - [BaibaKo]
Субтитры: нет

Режиссер: Энди Годдард, Марк Йобст, Кари Скогланд

rating

В ролях:

Бен Барнс, Джон Бернтал, Джейсон Р. Мур, Эбон Мосс-Бакрак, Майкл Натансон, Джейми Рэй Ньюман, Эмбер Роуз Рева, Пол Шульц, Даниэль Уэббер, Дебора Энн Уолл

Описание:

После того, как семья Фрэнка Касла была убита во время перестрелки нескольких банд Нью-Йорка, он решает отомстить и начинает охоту на преступников города. В преступном мире он становится известен как Каратель.

Качество: UHD WEBRip 2160p
Формат: MKV
Видео кодек: HEVC
Аудио кодек: AC3

Видео: HEVC, HDR, 11.7 Mбит/с, 3840x2160
Аудио#1: Русский (AC3, 6 ch, 384 Кбит/с)
Аудио#2: английский (AC3, 6 ch, 384 Кбит/с)
скриншот  скриншот  скриншот  

Общее
Уникальный идентификатор : 221554853148279030245277316342892784405 (0xA6ADE9A02BA98A4FAAC9FD09BCFCEB15)
Полное имя : D:\Marvels.The.Punisher.S01.2160p.NF.WEBRip.HDR.DD5.1.x265.HEVC-WiSH\Marvels.The.Punisher.S01E07.2160p.NF.WEBRip.HDR.DD5.1.x265.HEVC-WiSH.mkv
Формат : Matroska
Версия формата : Version 4 / Version 2
Размер файла : 4,09 Гбайт
Продолжительность : 49 м. 5 с.
Общий поток : 11,9 Мбит/сек
Дата кодирования : UTC 2017-11-29 06:00:50
Программа кодирования : mkvmerge v18.0.0 ('Apricity') 64-bit
Библиотека кодирования : libebml v1.3.5 + libmatroska v1.4.8

Видео
Идентификатор : 1
Формат : HEVC
Формат/Информация : High Efficiency Video Coding
Профиль формата : Main [email protected]@Main
Идентификатор кодека : V_MPEGH/ISO/HEVC
Продолжительность : 46 м. 58 с.
Битрейт : 11,7 Мбит/сек
Ширина : 3840 пикселей
Высота : 2160 пикселей
Соотношение сторон : 16:9
Режим частоты кадров : Постоянный
Частота кадров : 23,976 (24000/1001) кадра/сек
Частота кадров в оригинале : 23,976 (23976/1000) кадра/сек
Цветовое пространство : YUV
Субдискретизация насыщенности : 4:2:0
Битовая глубина : 10 бит
Бит/(Пиксели*Кадры) : 0.059
Размер потока : 3,83 Гбайт (94%)
Библиотека кодирования : x265 1.9:[Linux][GCC 4.6.2][64 bit] 10bit
Настройки программы : wpp / ctu=64 / min-cu-size=8 / max-tu-size=32 / tu-intra-depth=3 / tu-inter-depth=3 / me=3 / subme=4 / merange=57 / rect / amp / max-merge=4 / temporal-mvp / no-early-skip / rdpenalty=0 / no-tskip / no-tskip-fast / strong-intra-smoothing / no-lossless / no-cu-lossless / no-constrained-intra / no-fast-intra / no-open-gop / no-temporal-layers / interlace=0 / keyint=250 / min-keyint=23 / scenecut=0 / rc-lookahead=40 / lookahead-slices=0 / bframes=8 / bframe-bias=0 / b-adapt=2 / ref=3 / limit-refs=1 / limit-modes / weightp / weightb / aq-mode=1 / qg-size=32 / aq-strength=1.00 / cbqpoffs=0 / crqpoffs=0 / rd=6 / psy-rd=2.00 / rdoq-level=2 / psy-rdoq=1.00 / signhide / deblock / sao / no-sao-non-deblock / b-pyramid / cutree / no-intra-refresh / rc=2 / pass / bitrate=12000 / qcomp=0.60 / qpmin=0 / qpmax=51 / qpstep=4 / cplxblur=20.0 / qblur=0.5 / ipratio=1.40 / pbratio=1.30
Default : Да
Forced : Нет
Цветовой диапазон : Limited
Основные цвета : BT.2020
Характеристики трансфера : SMPTE ST 2084
Коэффициенты матрицы : BT.2020 non-constant

Аудио #1
Идентификатор : 2
Формат : AC-3
Формат/Информация : Audio Coding 3
Расширение режима : CM (complete main)
Параметр Endianness формата : Big
Идентификатор кодека : A_AC3
Продолжительность : 49 м. 5 с.
Вид битрейта : Постоянный
Битрейт : 384 Кбит/сек
Каналы : 6 каналов
Расположение каналов : Front: L C R, Side: L R, LFE
Частота : 48,0 КГц
Частота кадров : 31,250 кадров/сек (1536 spf)
Метод сжатия : С потерями
Задержка видео : 8 мс.
Размер потока : 135 Мбайт (3%)
Язык : Russian
Default : Да
Forced : Нет

Аудио #2
Идентификатор : 3
Формат : AC-3
Формат/Информация : Audio Coding 3
Расширение режима : CM (complete main)
Параметр Endianness формата : Big
Идентификатор кодека : A_AC3
Продолжительность : 46 м. 58 с.
Вид битрейта : Постоянный
Битрейт : 384 Кбит/сек
Каналы : 6 каналов
Расположение каналов : Front: L C R, Side: L R, LFE
Частота : 48,0 КГц
Частота кадров : 31,250 кадров/сек (1536 spf)
Метод сжатия : С потерями
Задержка видео : 24 мс.
Размер потока : 129 Мбайт (3%)
Язык : English
Default : Нет
Forced : Нет




Скачать Каратель через торрент https://pic1.kartinco.top/images/11/p9rfk.jpg Скачать, смотреть онлайн Каратель бесплантно в хорошем качестве Описание: После того, как семья Фрэнка Касла была убита во время перестрелки нескольких банд Нью-Йорка, он решает отомстить и начинает ... 10 10 4
Info! Золотая раздача, скачанное не засчитывается.
Торрент: Зарегистрирован [2017-12-01 05:34] · скачан: 88 раз
Статус: √ проверено
Размер: 57.69 GB
Как cкачать? Как скачать Каратель через торрент | UTorrent

% Раздел Тема Автор DL S | L
Зарубежные сериалы [ 12.44 GB ] Каратель / The Punisher / Сезон: 2 / Серии: 1-13 из 13 | NewStudio | 720p bober100 Скачать
1 | 0
Зарубежные сериалы [ 23.29 GB ] Каратель / The Punisher / Сезон: 2 / Серии: 1-13 из 13 | Jaskier | 1080p bober100 Скачать
1 | 0
Зарубежные сериалы [ 12.19 GB ] Каратель / The Punisher / Сезон: 2 / Серии: 1-13 из 13 | Jaskier | 720p bober100 Скачать
1 | 0
Зарубежные сериалы [ 9.92 GB ] Каратель / The Punisher / Сезон: 2 / Серии: 1-13 из 13 | Jaskier | DLRip bober100 Скачать
1 | 0
Зарубежные сериалы [ 159.26 GB ] Каратель / The Punisher / Сезон 1 / Серии 1-13 из 13 | MVO+DVO | 2160p bober100 Скачать
1 | 0
Зарубежные сериалы [ 8.37 GB ] Каратель / The Punisher / Сезон: 2 / Серии: 1-13 из 13 | LostFilm | DLRip bober100 Скачать
1 | 0
Зарубежные сериалы [ 8.01 GB ] Каратель / The Punisher / Сезон: 1 / Серии: 1-13 из 13 | MVO | WEBRip bober100 Скачать
1 | 0

28-11-2019 20:33  


Отключить вcю реклaмy на сайте, в т.ч. и в плеере онлайн просмотра!

    Дорогой пользователь! Огромная просьба, поблагодарите релизера, оцените раздачу и оставьте свои комментарий, если Вы скачали Каратель через торрент бесплатно!!
    Комментировать посты могут только пользователи прошедшие не сложную регистрацию
    Показать сообщения:    


    Каратель через торрент
    Скачать бесплатно Каратель
    Каратель скачать торрент
    Каратель смотреть онлайн
    Cкачать фильм Каратель бесплатно
    Каратель скачать торрент в хорошем качестве
    Каратель смотреть онлайн бесплатно в хорошем качестве
    Вы не можете начинать темы
    Вы не можете отвечать на сообщения
    Вы не можете редактировать свои сообщения
    Вы не можете удалять свои сообщения
    Вы не можете голосовать в опросах
    Вы не можете прикреплять файлы к сообщениям
    Вы можете скачивать файлы
    Каратель / The Punisher / Сезон 1 / Серии 1-13 из 13 [2017, фантастика, боевик, триллер, драма, криминал, приключения, UHD WEBRip 2160p ] MVO [BaibaKo] смотреть онлайн, скачать торрент picoco.icu