Достать ножи: Стеклянная луковица

MVO

Добыча

Дубляж

Уэнсдэй

1 сезон

Тор

Дубляж

13 клиническая

1 сезон

Жестокая ночь

MVO

Одни из нас

1 сезон

Deluxe

pack

Рекомендуем

30

Пиратка

ВАЖНО

ВАЖНО

Ghostwire

Пиратка

jed

RePack

nioh2

RePack

RDR2

RePack

NEED FOR SPEED™ PAYBACK

RePack

скачать торрент

Кинопоиск HD

Острые козырьки 6 сезон

6 сезон

FAR CRY 6

RePack

скачать торрент

Лицензия

скачать торрент

MVO

1

1 сезон

скачать торрент

1 сезон

скачать торрент

Лицензия

  

Стартрек: Возмездие / Star Trek Into Darkness [IMAX Edition] (Джей Джей Абрамс) [2013, США, фантастика, UHD BDRemux 2160p от ExKinoRay | 4K | HDR | Лицензия

Стартрек: Возмездие через торрент 5050.piratbit.fun

Размер: 50.26 GB | Добавлен: 5 лет 1 мес. назад | Торрент скачан:50 раз
Смотреть онлайн | Скачать | Поддержите нас   

17-12-2017 19:46 Стартрек: Возмездие Скачать торрент  

Название: Стартрек: Возмездие

Оригинальное название: Star Trek Into Darkness

Год выхода: 2013

Жанр: Фантастика, боевик, приключения

Режиссер: Джей Джей Абрамс

В ролях: Крис Пайн, Закари Куинто, Зои Салдана, Карл Урбан, Бенедикт Камбербэтч, Саймон Пегг, Элис Ив, Антон Ельчин, Джон Чо, Питер Уэллер

Описание:

Вернувшись на Землю, команда корабля «Энтерпрайз» обнаруживает, что деятельность и принципы их организации подорваны изнутри. Флот скован необъяснимым ужасом и бездействует, пока мир все глубже погружается в бездну.Капитан Кирк берет на себя руководство операцией по поимке злодея, ответственного за этот хаос и способного уничтожить все человечество.В запутанной игре не на жизнь, а на смерть, любовь и дружба будут принесены в жертву ради единственного, что осталось у Кирка — его команды.



Страна: США

Студия: Bad Robot, Kurtzman/Orci, Paramount Pictures, Skydance Productions

Продолжительность: 02:12:06

Перевод: Дублированный | Лицензия

Файл

Качество: BDRemux 2160p

Видео: MPEG-H HEVC HDR Video, 3840x2160, 48.3 Mbit/s, 23.976 fps

Звук:

Аудио #01: 48 kHz, AC3, 5.1, 640 Kbps | Дублированный | RUS |

Аудио #02: 48 kHz, TrueHD, 5.1, 4811 Kbps | Оригинал | ENG |

Аудио #03: 48 kHz, AC3, 5.1, 640 Kbps | Оригинал | ENG |

Субтитры: Русские (forced, full), английские

General

Unique ID : 237763763755455027518036990811525825938 (0xB2DFA29E7A66A641A5C08E19C32B4592)

Complete name : G:VideoSSDStar.Trek.Into.Darkness.2013.BDREMUX.2160p.4K.UltraHD.HEVC.HDR.ExKinoRay.mkv

Format : Matroska

Format version : Version 4 / Version 2

File size : 50.3 GiB

Duration : 2 h 12 min

Overall bit rate mode : Variable

Overall bit rate : 54.5 Mb/s

Movie name : Star Trek: Into Darkness 2013 from ExKinoRay

Encoded date : UTC 2017-12-17 19:17:05

Writing application : mkvmerge v18.0.0 ('Apricity') 64-bit

Writing library : libebml v1.3.5 + libmatroska v1.4.8

Video

ID : 1

Format : HEVC

Format/Info : High Efficiency Video Coding

Format profile : Main [email protected]@High

Codec ID : V_MPEGH/ISO/HEVC

Duration : 2 h 12 min

Bit rate : 48.3 Mb/s

Width : 3 840 pixels

Height : 2 160 pixels

Display aspect ratio : 16:9

Frame rate mode : Constant

Frame rate : 23.976 (24000/1001) FPS

Color space : YUV

Chroma subsampling : 4:2:0 (Type 2)

Bit depth : 10 bits

Bits/(Pixel*Frame) : 0.243

Stream size : 44.6 GiB (89%)

Writing library : ATEME Titan KFE 3.7.3 (4.7.3.1003)

Language : English

Default : Yes

Forced : No

Color range : Limited

Color primaries : BT.2020

Transfer characteristics : PQ

Matrix coefficients : BT.2020 non-constant

Mastering display color pri : R: x=0.680000 y=0.320000, G: x=0.265000 y=0.690000, B: x=0.150000 y=0.060000, White point: x=0.312700 y=0.329000

Mastering display luminance : min: 0.0050 cd/m2, max: 1000.0000 cd/m2

Audio #1

ID : 2

Format : AC-3

Format/Info : Audio Coding 3

Format settings, Endianness : Big

Codec ID : A_AC3

Duration : 2 h 12 min

Bit rate mode : Constant

Bit rate : 640 kb/s

Channel(s) : 6 channels

Channel positions : Front: L C R, Side: L R, LFE

Sampling rate : 48.0 kHz

Frame rate : 31.250 FPS (1536 SPF)

Bit depth : 16 bits

Compression mode : Lossy

Stream size : 605 MiB (1%)

Title : Дубляж [License]

Language : Russian

Service kind : Complete Main

Default : Yes

Forced : No

Audio #2

ID : 3

Format : TrueHD

Format profile : TrueHD+Atmos / TrueHD

Codec ID : A_TRUEHD

Duration : 2 h 12 min

Bit rate mode : Variable

Bit rate : 4 811 kb/s

Maximum bit rate : 8 238 kb/s

Channel(s) : Object Based / 8 channels

Channel positions : Object Based / Front: L C R, Side: L R, Back: L R, LFE

Sampling rate : / 48.0 kHz

Frame rate : 1 200.000 FPS (40 SPF)

Compression mode : Lossless

Stream size : 4.44 GiB (9%)

Title : Original

Language : English

Default : No

Forced : No

Audio #3

ID : 4

Format : AC-3

Format/Info : Audio Coding 3

Format settings, Endianness : Big

Codec ID : A_AC3

Duration : 2 h 12 min

Bit rate mode : Constant

Bit rate : 640 kb/s

Channel(s) : 6 channels

Channel positions : Front: L C R, Side: L R, LFE

Sampling rate : 48.0 kHz

Frame rate : 31.250 FPS (1536 SPF)

Bit depth : 16 bits

Compression mode : Lossy

Stream size : 605 MiB (1%)

Language : English

Service kind : Complete Main

Default : No

Forced : No

Text #1

ID : 5

Format : UTF-8

Codec ID : S_TEXT/UTF8

Codec ID/Info : UTF-8 Plain Text

Duration : 1 h 5 min

Bit rate : 1 b/s

Count of elements : 16

Stream size : 754 Bytes (0%)

Title : Forced

Language : Russian

Default : Yes

Forced : No

Text #2

ID : 6

Format : UTF-8

Codec ID : S_TEXT/UTF8

Codec ID/Info : UTF-8 Plain Text

Duration : 2 h 2 min

Bit rate : 100 b/s

Count of elements : 1395

Stream size : 90.1 KiB (0%)

Title : Full

Language : Russian

Default : No

Forced : No

Text #3

ID : 7

Format : UTF-8

Codec ID : S_TEXT/UTF8

Codec ID/Info : UTF-8 Plain Text

Duration : 2 h 1 min

Bit rate : 119 b/s

Count of elements : 1751

Stream size : 106 KiB (0%)

Title : Full [Notabenoid]

Language : Russian

Default : No

Forced : No

Text #4

ID : 8

Format : UTF-8

Codec ID : S_TEXT/UTF8

Codec ID/Info : UTF-8 Plain Text

Duration : 2 h 1 min

Bit rate : 66 b/s

Count of elements : 1742

Stream size : 59.0 KiB (0%)

Title : Full

Language : English

Default : No

Forced : No

Text #5

ID : 9

Format : UTF-8

Codec ID : S_TEXT/UTF8

Codec ID/Info : UTF-8 Plain Text

Duration : 2 h 2 min

Bit rate : 71 b/s

Count of elements : 1974

Stream size : 64.4 KiB (0%)

Title : SDH

Language : English

Default : No

Forced : No

Menu

00:00:00.000 : en:00:00:00.000

00:10:20.370 : en:00:10:20.370

00:19:21.494 : en:00:19:21.494

00:30:03.969 : en:00:30:03.969

00:40:09.115 : en:00:40:09.115

00:46:05.262 : en:00:46:05.262

00:56:38.228 : en:00:56:38.228

01:06:35.783 : en:01:06:35.783

01:12:55.663 : en:01:12:55.663

01:22:45.752 : en:01:22:45.752

01:30:54.741 : en:01:30:54.741

01:38:36.369 : en:01:38:36.369

01:47:09.548 : en:01:47:09.548

01:54:17.142 : en:01:54:17.142

01:59:20.653 : en:01:59:20.653

02:03:18.308 : en:02:03:18.308
Релиз от: Автор релиза:



Скачать Стартрек: Возмездие через торрент http://s020.radikal.ru/i723/1712/42/9d25316ec5be.jpg Скачать, смотреть онлайн Стартрек: Возмездие бесплантно в хорошем качестве Описание:Вернувшись на Землю, команда корабля «Энтерпрайз» обнаруживает, что деятельность и принципы их организации подорваны изнутри. Флот ... 10 10 1
Info! Золотая раздача, скачанное не засчитывается.
Торрент: Зарегистрирован [2017-12-17 19:46] · скачан: 50 раз
Статус: √ проверено
Размер: 50.26 GB
Как cкачать? Как скачать Стартрек: Возмездие через торрент | UTorrent

28-11-2019 20:33  


Отключить вcю реклaмy на сайте, в т.ч. и в плеере онлайн просмотра!

    Дорогой пользователь! Огромная просьба, поблагодарите релизера, оцените раздачу и оставьте свои комментарий, если Вы скачали Стартрек: Возмездие через торрент бесплатно!!
    Комментировать посты могут только пользователи прошедшие не сложную регистрацию
    Показать сообщения:    


    Стартрек: Возмездие через торрент
    Скачать бесплатно Стартрек: Возмездие
    Стартрек: Возмездие скачать торрент
    Стартрек: Возмездие смотреть онлайн
    Cкачать фильм Стартрек: Возмездие бесплатно
    Стартрек: Возмездие скачать торрент в хорошем качестве
    Стартрек: Возмездие смотреть онлайн бесплатно в хорошем качестве
    Вы не можете начинать темы
    Вы не можете отвечать на сообщения
    Вы не можете редактировать свои сообщения
    Вы не можете удалять свои сообщения
    Вы не можете голосовать в опросах
    Вы не можете прикреплять файлы к сообщениям
    Вы можете скачивать файлы
    Стартрек: Возмездие / Star Trek Into Darkness [IMAX Edition] [2013, США, фантастика, UHD BDRemux 2160p от ExKinoRay | 4K | HDR | Лицензия смотреть онлайн, скачать торрент picoco.icu