Достать ножи: Стеклянная луковица

MVO

Добыча

Дубляж

Уэнсдэй

1 сезон

Тор

Дубляж

13 клиническая

1 сезон

Жестокая ночь

MVO

Одни из нас

1 сезон

Deluxe

pack

Рекомендуем

30

Пиратка

ВАЖНО

ВАЖНО

Ghostwire

Пиратка

jed

RePack

nioh2

RePack

RDR2

RePack

NEED FOR SPEED™ PAYBACK

RePack

скачать торрент

Кинопоиск HD

Острые козырьки 6 сезон

6 сезон

FAR CRY 6

RePack

скачать торрент

Лицензия

скачать торрент

MVO

1

1 сезон

скачать торрент

1 сезон

скачать торрент

Лицензия

  

Терминатор 2: Судный день / Terminator 2: Judgment Day (Джеймс Кэмерон) [1991, фантастика, боевик, триллер, BDRemux 2160p] 4xMVO + DVO + AVO + VO

Терминатор 2: Судный день через торрент 5050.piratbit.fun

Раздают: 1 [ 0 KB/s ]
Размер: 53.24 GB | Добавлен: 5 лет 1 мес. назад | Торрент скачан:191 раз
Смотреть онлайн | Скачать | Поддержите нас   

26-12-2017 13:27 Терминатор 2: Судный день Скачать торрент  

Терминатор 2: Судный день / Terminator 2: Judgment DayТеатральная версия
Год выпуска: 1991
Страна: США, Франция
Жанр: фантастика, боевик, триллер
Продолжительность: 02:17:08
Перевод(ы):
#1: Профессиональный многоголосый | Twister
#2: Профессиональный многоголосый | Киномания
#3: Профессиональный многоголосый | РТР
#4: Профессиональный многоголосый | ОРТ
#5: Профессиональный двухголосый | ТВ-6 Москва
#6: Авторский | Гаврилов
#7: Любительский одноголосый | Смешной перевод
Субтитры: Русские (Forced, Full), английские (Full)
Режиссер: Джеймс Кэмерон
В ролях:

Арнольд Шварценеггер (The Terminator), Линда Хэмилтон (Sarah Connor), Эдвард Ферлонг (John Connor), Роберт Патрик (T-1000), Эрл Боэн (Dr. Silberman), Джо Мортон (Miles Dyson), С. Ипейта Меркерсон (Tarissa Dyson), Кастуло Герра (Enrique Salceda), Дэнни Кукси (Tim), Дженетт Голдстин (Janelle Voight), Ксандер Беркли (Todd Voight), Лесли Хэмилтон Геррен (Twin Sarah)
Описание:
Прошло более десяти лет с тех пор, как киборг-терминатор из 2029 года пытался уничтожить Сару Коннор - женщину, чей будущий сын выиграет войну человечества против машин.
Рейтинг:

MPAA: R - Лицам до 17 лет обязательно присутствие взрослого
Качество: BDRemux 2160p
Формат: MKV
Видео: MPEG-H HEVC HDR Video, 3840x2160, 47.0 Mbit/s, 23.976 fps
Аудио #01: 48 kHz, AC3, 5.1, 640 Kbps | Профессиональный многоголосый | RUS |
Аудио #02: 48 kHz, AC3, 5.1, 640 Kbps | Профессиональный многоголосый | RUS |
Аудио #03: 48 kHz, AC3, 5.1, 640 Kbps | Профессиональный многоголосый | RUS |
Аудио #04: 48 kHz, AC3, 5.1, 640 Kbps | Профессиональный многоголосый | RUS |
Аудио #05: 48 kHz, AC3, 5.1, 640 Kbps | Профессиональный двухголосый| RUS |
Аудио #06: 48 kHz, AC3, 5.1, 640 Kbps | Авторский | RUS |
Аудио #07: 48 kHz, AC3, 5.1, 640 Kbps | Любительский одноголосый | RUS |
Аудио #08: 48 kHz, DTS-HD MA, 5.1, 4084 Kbps | Оригинал | ENG |
Навигация по главам: есть
General
Unique ID : 153563593396829060568137736574065411936 (0x738745B4BC79235FD93FCE90421F8760)
Complete name : G:VideoSSDTerminator.2.Judgment.Day.1991.Theatrical.Cut.BDREMUX.2160p.4K.UltraHD.HEVC.HDR.ExKinoRay.mkv
Format : Matroska
Format version : Version 4 / Version 2
File size : 53.2 GiB
Duration : 2 h 17 min
Overall bit rate : 55.5 Mb/s
Movie name : Terminator 2 Judgment Day 1991 from ExKinoRay
Encoded date : UTC 2017-12-26 11:11:31
Writing application : mkvmerge v19.0.0 ('Brave Captain') 64-bit
Writing library : libebml v1.3.5 + libmatroska v1.4.8

Video
ID : 1
Format : HEVC
Format/Info : High Efficiency Video Coding
Format profile : Main [email protected]@High
Codec ID : V_MPEGH/ISO/HEVC
Duration : 2 h 17 min
Bit rate : 47.0 Mb/s
Width : 3 840 pixels
Height : 2 160 pixels
Display aspect ratio : 16:9
Frame rate mode : Constant
Frame rate : 23.976 (24000/1001) FPS
Color space : YUV
Chroma subsampling : 4:2:0 (Type 2)
Bit depth : 10 bits
Bits/(Pixel*Frame) : 0.236
Stream size : 45.0 GiB (85%)
Writing library : ATEME Titan File 3.7.10 (4.7.10.0)
Language : English
Default : Yes
Forced : No
Color range : Limited
Color primaries : BT.2020
Transfer characteristics : PQ
Matrix coefficients : BT.2020 non-constant

Audio #1
ID : 2
Format : AC-3
Format/Info : Audio Coding 3
Codec ID : A_AC3
Duration : 2 h 17 min
Bit rate mode : Constant
Bit rate : 640 kb/s
Channel(s) : 6 channels
Channel positions : Front: L C R, Side: L R, LFE
Sampling rate : 48.0 kHz
Frame rate : 31.250 FPS (1536 SPF)
Bit depth : 16 bits
Compression mode : Lossy
Stream size : 628 MiB (1%)
Title : MVO [Twister]
Language : Russian
Service kind : Complete Main
Default : Yes
Forced : No

Audio #2
ID : 3
Format : AC-3
Format/Info : Audio Coding 3
Codec ID : A_AC3
Duration : 2 h 17 min
Bit rate mode : Constant
Bit rate : 640 kb/s
Channel(s) : 6 channels
Channel positions : Front: L C R, Side: L R, LFE
Sampling rate : 48.0 kHz
Frame rate : 31.250 FPS (1536 SPF)
Bit depth : 16 bits
Compression mode : Lossy
Stream size : 628 MiB (1%)
Title : MVO [Киномания]
Language : Russian
Service kind : Complete Main
Default : No
Forced : No

Audio #3
ID : 4
Format : AC-3
Format/Info : Audio Coding 3
Codec ID : A_AC3
Duration : 2 h 17 min
Bit rate mode : Constant
Bit rate : 640 kb/s
Channel(s) : 6 channels
Channel positions : Front: L C R, Side: L R, LFE
Sampling rate : 48.0 kHz
Frame rate : 31.250 FPS (1536 SPF)
Bit depth : 16 bits
Compression mode : Lossy
Stream size : 628 MiB (1%)
Title : MVO [РТР]
Language : Russian
Service kind : Complete Main
Default : No
Forced : No

Audio #4
ID : 5
Format : AC-3
Format/Info : Audio Coding 3
Codec ID : A_AC3
Duration : 2 h 17 min
Bit rate mode : Constant
Bit rate : 640 kb/s
Channel(s) : 6 channels
Channel positions : Front: L C R, Side: L R, LFE
Sampling rate : 48.0 kHz
Frame rate : 31.250 FPS (1536 SPF)
Bit depth : 16 bits
Compression mode : Lossy
Stream size : 628 MiB (1%)
Title : MVO [ОРТ]
Language : Russian
Service kind : Complete Main
Default : No
Forced : No

Audio #5
ID : 6
Format : AC-3
Format/Info : Audio Coding 3
Codec ID : A_AC3
Duration : 2 h 17 min
Bit rate mode : Constant
Bit rate : 640 kb/s
Channel(s) : 6 channels
Channel positions : Front: L C R, Side: L R, LFE
Sampling rate : 48.0 kHz
Frame rate : 31.250 FPS (1536 SPF)
Bit depth : 16 bits
Compression mode : Lossy
Stream size : 628 MiB (1%)
Title : DVO [ТВ-6 Москва]
Language : Russian
Service kind : Complete Main
Default : No
Forced : No

Audio #6
ID : 7
Format : AC-3
Format/Info : Audio Coding 3
Codec ID : A_AC3
Duration : 2 h 17 min
Bit rate mode : Constant
Bit rate : 640 kb/s
Channel(s) : 6 channels
Channel positions : Front: L C R, Side: L R, LFE
Sampling rate : 48.0 kHz
Frame rate : 31.250 FPS (1536 SPF)
Bit depth : 16 bits
Compression mode : Lossy
Stream size : 628 MiB (1%)
Title : AVO [А.Гаврилов]
Language : Russian
Service kind : Complete Main
Default : No
Forced : No

Audio #7
ID : 8
Format : AC-3
Format/Info : Audio Coding 3
Codec ID : A_AC3
Duration : 2 h 17 min
Bit rate mode : Constant
Bit rate : 640 kb/s
Channel(s) : 6 channels
Channel positions : Front: L C R, Side: L R, LFE
Sampling rate : 48.0 kHz
Frame rate : 31.250 FPS (1536 SPF)
Bit depth : 16 bits
Compression mode : Lossy
Stream size : 628 MiB (1%)
Title : VO [Смешной перевод]
Language : Russian
Service kind : Complete Main
Default : No
Forced : No

Audio #8
ID : 9
Format : DTS
Format/Info : Digital Theater Systems
Format profile : MA / Core
Codec ID : A_DTS
Duration : 2 h 17 min
Bit rate mode : Variable / Constant
Bit rate : 4 084 kb/s / 1 509 kb/s
Channel(s) : 6 channels
Channel positions : Front: L C R, Side: L R, LFE
Sampling rate : 48.0 kHz
Frame rate : 93.750 FPS (512 SPF)
Bit depth : 24 bits
Compression mode : Lossless / Lossy
Stream size : 3.92 GiB (7%)
Title : Original
Language : English
Default : No
Forced : No

Text #1
ID : 10
Format : UTF-8
Codec ID : S_TEXT/UTF8
Codec ID/Info : UTF-8 Plain Text
Duration : 1 h 51 min
Bit rate : 1 b/s
Count of elements : 18
Stream size : 839 Bytes (0%)
Title : Forced
Language : Russian
Default : Yes
Forced : No

Text #2
ID : 11
Format : UTF-8
Codec ID : S_TEXT/UTF8
Codec ID/Info : UTF-8 Plain Text
Duration : 2 h 11 min
Bit rate : 45 b/s
Count of elements : 838
Stream size : 43.9 KiB (0%)
Title : Full
Language : Russian
Default : No
Forced : No

Text #3
ID : 12
Format : UTF-8
Codec ID : S_TEXT/UTF8
Codec ID/Info : UTF-8 Plain Text
Duration : 2 h 11 min
Bit rate : 33 b/s
Count of elements : 1003
Stream size : 32.2 KiB (0%)
Title : Full
Language : English
Default : No
Forced : No

Menu
00:00:00.000 : en:Chapter 1
00:09:42.791 : en:Chapter 2
00:22:07.034 : en:Chapter 3
00:35:00.890 : en:Chapter 4
00:47:57.583 : en:Chapter 5
01:01:44.993 : en:Chapter 6
01:13:17.143 : en:Chapter 7
01:21:51.115 : en:Chapter 8
01:30:19.122 : en:Chapter 9
01:39:28.379 : en:Chapter 10
01:50:05.474 : en:Chapter 11
02:03:45.668 : en:Chapter 12



Скачать Терминатор 2: Судный день через торрент http://i99.fastpic.ru/big/2017/1226/0f/4b1ccda062ee6a70e6201a5336f1280f.png Скачать, смотреть онлайн Терминатор 2: Судный день бесплантно в хорошем качестве Описание: Прошло более десяти лет с тех пор, как киборг-терминатор из 2029 года пытался уничтожить Сару Коннор - женщину, чей будущий сын ... 10 10 10
Info! Золотая раздача, скачанное не засчитывается.
Торрент: Зарегистрирован [2017-12-26 13:27] · скачан: 191 раз
Статус: √ проверено
Размер: 53.24 GB
Как cкачать? Как скачать Терминатор 2: Судный день через торрент | UTorrent

28-11-2019 20:33  


Отключить вcю реклaмy на сайте, в т.ч. и в плеере онлайн просмотра!

26-12-2017 13:51 Терминатор 2: Судный день Скачать торрент  

Сара коннор набрала вес !



26-12-2017 17:34 Терминатор 2: Судный день Скачать торрент  

Золото будет?



    Дорогой пользователь! Огромная просьба, поблагодарите релизера, оцените раздачу и оставьте свои комментарий, если Вы скачали Терминатор 2: Судный день через торрент бесплатно!!
    Комментировать посты могут только пользователи прошедшие не сложную регистрацию
    Показать сообщения:    


    Терминатор 2: Судный день через торрент
    Скачать бесплатно Терминатор 2: Судный день
    Терминатор 2: Судный день скачать торрент
    Терминатор 2: Судный день смотреть онлайн
    Cкачать фильм Терминатор 2: Судный день бесплатно
    Терминатор 2: Судный день скачать торрент в хорошем качестве
    Терминатор 2: Судный день смотреть онлайн бесплатно в хорошем качестве
    Вы не можете начинать темы
    Вы не можете отвечать на сообщения
    Вы не можете редактировать свои сообщения
    Вы не можете удалять свои сообщения
    Вы не можете голосовать в опросах
    Вы не можете прикреплять файлы к сообщениям
    Вы можете скачивать файлы
    Терминатор 2: Судный день / Terminator 2: Judgment Day [1991, фантастика, боевик, триллер, BDRemux 2160p] 4xMVO + DVO + AVO + VO смотреть онлайн, скачать торрент picoco.icu