Достать ножи: Стеклянная луковица

MVO

Добыча

Дубляж

Уэнсдэй

1 сезон

Тор

Дубляж

13 клиническая

1 сезон

Жестокая ночь

MVO

Одни из нас

1 сезон

Deluxe

pack

Рекомендуем

30

Пиратка

ВАЖНО

ВАЖНО

Ghostwire

Пиратка

jed

RePack

nioh2

RePack

RDR2

RePack

NEED FOR SPEED™ PAYBACK

RePack

скачать торрент

Кинопоиск HD

Острые козырьки 6 сезон

6 сезон

FAR CRY 6

RePack

скачать торрент

Лицензия

скачать торрент

MVO

1

1 сезон

скачать торрент

1 сезон

скачать торрент

Лицензия

  

Яркость / Bright (Дэвид Эйр) [2017 г., фантастика, фэнтези, боевик, UHD WEBRip 2160p] MVO [BaibaKo] + ENG + Subs

Яркость через торрент 5050.piratbit.fun

Размер: 23.32 GB | Добавлен: 5 лет 1 мес. назад | Торрент скачан:486 раз
Смотреть онлайн | Скачать | Поддержите нас   

26-12-2017 14:19 Яркость Скачать торрент  

Яркость / Bright Год выпуска: 2017
Страна: США
Производство: Clubhouse Pictures (II), NetFlix, Overbrook Entertainment
Жанр: Фантастика, фэнтези, боевик, триллер, криминал
Продолжительность: 01:57:46

Режиссёр: Дэвид Эйр
В ролях: Уилл Смит, Нуми Рапас, Джоэл Эдгертон, Люси Фрай, Джей Эрнандес, Эдгар Рамирес, Айк Баринхолц, Вероника Нго, Хэппи Андерсон, Брэд Уильям Хенке

Перевод: Профессиональный многоголосый [BaibaKo] + Оригинал (английский)
Субтитры: Английские (форсированные, полные / UTF-8), немецкие, испанские, французские, итальянские

Описание: Действие разворачивается в Лос-Анджелесе, в вымышленном фантастическом мире, где царствуют не только высокие технологии, но и магия. В городе бок о бок с людьми живут эльфы, орки и другие сверхъестественные существа. Главный герой служит в полицейском департаменте, в специальном отделе, занимающимся раскрытием преступлений, в которых замешаны магические силы. Пытаясь раскрыть очередное дело, он вынужден объединиться с орком. Вместе им предстоит найти и защитить древний мистический артефакт, обладающий могущественными способностями, от рук злоумышленников.



Доп. информация: Релиз без рекламы!

Формат: MKV
Качество: WEBRip 2160p

Видео: 3840x1608 (2.40:1), 24.000 fps, XviD ~ 27.5 Mbps avg, 0.186 bit/pixel

Аудио#1: AC3, 48 kHz, 6 ch, ~ 384.00 kbps avg | Профессиональный многоголосый [BaibaKo]
Аудио#2: E-AC-3, 48 kHz, 6 ch, ~ 448.00 kbps avg | Оригинал (английский)

Дата премьеры (мир): 22 декабря 2017
General
Unique ID : 237805156939388796528647112062061568997 (0xB2E79B75E930812FA307A15760CCE3E5)
Complete name : Bright.2017.2160p.NF.WEBRip.DDP5.1.x264.mkv
Format : Matroska
Format version : Version 4 / Version 2
File size : 23.3 GiB
Duration : 1 h 57 min
Overall bit rate : 28.3 Mb/s
Encoded date : UTC 2017-12-24 13:40:51
Writing application : mkvmerge v18.0.0 ('Apricity') 64-bit
Writing library : libebml v1.3.5 + libmatroska v1.4.8

Video
ID : 1
Format : AVC
Format/Info : Advanced Video Codec
Format profile : [email protected]
Format settings, CABAC : Yes
Format settings, RefFrames : 7 frames
Codec ID : V_MPEG4/ISO/AVC
Duration : 1 h 57 min
Bit rate : 27.5 Mb/s
Width : 3 840 pixels
Height : 1 608 pixels
Display aspect ratio : 2.40:1
Frame rate mode : Constant
Frame rate : 24.000 FPS
Color space : YUV
Chroma subsampling : 4:2:0
Bit depth : 8 bits
Scan type : Progressive
Bits/(Pixel*Frame) : 0.186
Stream size : 22.6 GiB (97%)
Writing library : x264 core 152 r2851kMod ba24899
Encoding settings : cabac=1 / ref=7 / deblock=1:-3:-3 / analyse=0x3:0x133 / me=umh / subme=10 / psy=1 / fade_compensate=0.00 / psy_rd=1.00:0.00 / mixed_ref=1 / me_range=48 / chroma_me=1 / trellis=2 / 8x8dct=1 / cqm=0 / deadzone=21,11 / fast_pskip=0 / chroma_qp_offset=-2 / threads=24 / lookahead_threads=4 / sliced_threads=0 / nr=0 / decimate=0 / interlaced=0 / bluray_compat=0 / constrained_intra=0 / bframes=8 / b_pyramid=2 / b_adapt=2 / b_bias=0 / direct=3 / weightb=1 / open_gop=0 / weightp=2 / keyint=250 / keyint_min=24 / scenecut=40 / intra_refresh=0 / rc=crf / mbtree=0 / crf=18.0000 / qcomp=0.60 / qpmin=0 / qpmax=69 / qpstep=4 / ip_ratio=1.30 / pb_ratio=1.20 / aq=3:0.80
Language : English
Default : Yes
Forced : No

Audio #1
ID : 2
Format : AC-3
Format/Info : Audio Coding 3
Format settings, Endianness : Big
Codec ID : A_AC3
Duration : 1 h 57 min
Bit rate mode : Constant
Bit rate : 384 kb/s
Channel(s) : 6 channels
Channel positions : Front: L C R, Side: L R, LFE
Sampling rate : 48.0 kHz
Frame rate : 31.250 FPS (1536 SPF)
Bit depth : 16 bits
Compression mode : Lossy
Stream size : 322 MiB (1%)
Title : [BaibaKo]
Language : Russian
Service kind : Complete Main
Default : No
Forced : No

Audio #2
ID : 3
Format : E-AC-3
Format/Info : Enhanced Audio Coding 3
Format profile : E-AC-3+Atmos / E-AC-3
Format settings, Endianness : Big
Codec ID : A_EAC3
Duration : 1 h 57 min
Bit rate mode : Constant
Bit rate : 448 kb/s
Channel(s) : 15 objects / 6 channels
Channel positions : 15 objects / Front: L C R, Side: L R, LFE
Sampling rate : 48.0 kHz
Frame rate : 187.500 FPS (256 SPF)
Compression mode : Lossy
Stream size : 376 MiB (2%)
Language : English
Service kind : Complete Main
Default : Yes
Forced : No

Text #1
ID : 4
Format : UTF-8
Codec ID : S_TEXT/UTF8
Codec ID/Info : UTF-8 Plain Text
Duration : 1 h 17 min
Bit rate : 2 b/s
Count of elements : 64
Stream size : 1.27 KiB (0%)
Title : Forced
Language : English
Default : Yes
Forced : Yes

Text #2
ID : 5
Format : UTF-8
Codec ID : S_TEXT/UTF8
Codec ID/Info : UTF-8 Plain Text
Duration : 1 h 56 min
Bit rate : 74 b/s
Count of elements : 1978
Stream size : 63.4 KiB (0%)
Title : SDH
Language : English
Default : No
Forced : No

Text #3
ID : 6
Format : UTF-8
Codec ID : S_TEXT/UTF8
Codec ID/Info : UTF-8 Plain Text
Duration : 1 h 56 min
Bit rate : 63 b/s
Count of elements : 1704
Stream size : 53.8 KiB (0%)
Language : English
Default : No
Forced : No

Text #4
ID : 7
Format : UTF-8
Codec ID : S_TEXT/UTF8
Codec ID/Info : UTF-8 Plain Text
Duration : 1 h 56 min
Bit rate : 51 b/s
Count of elements : 1540
Stream size : 43.7 KiB (0%)
Language : German
Default : No
Forced : No

Text #5
ID : 8
Format : UTF-8
Codec ID : S_TEXT/UTF8
Codec ID/Info : UTF-8 Plain Text
Duration : 1 h 56 min
Bit rate : 50 b/s
Count of elements : 1594
Stream size : 42.9 KiB (0%)
Language : Spanish
Default : No
Forced : No

Text #6
ID : 9
Format : UTF-8
Codec ID : S_TEXT/UTF8
Codec ID/Info : UTF-8 Plain Text
Duration : 1 h 56 min
Bit rate : 51 b/s
Count of elements : 1465
Stream size : 43.9 KiB (0%)
Language : French
Default : No
Forced : No

Text #7
ID : 10
Format : UTF-8
Codec ID : S_TEXT/UTF8
Codec ID/Info : UTF-8 Plain Text
Duration : 1 h 56 min
Bit rate : 46 b/s
Count of elements : 1595
Stream size : 40.1 KiB (0%)
Language : Italian
Default : No
Forced : No
Скриншоты:

скриншот  скриншот  скриншот  скриншот  



Скачать Яркость через торрент http://i100.fastpic.ru/big/2017/1226/f4/b345c2e62c57bf356e027a67392053f4.png Скачать, смотреть онлайн Яркость бесплантно в хорошем качестве Описание: Действие разворачивается в Лос-Анджелесе, в вымышленном фантастическом мире, где царствуют не только высокие технологии, но и ... 10 10 12
Info! Золотая раздача, скачанное не засчитывается.
Торрент: Зарегистрирован [2017-12-26 14:19] · скачан: 486 раз
Статус: √ проверено
Размер: 23.32 GB
Как cкачать? Как скачать Яркость через торрент | UTorrent

28-11-2019 20:33  


Отключить вcю реклaмy на сайте, в т.ч. и в плеере онлайн просмотра!

26-12-2017 16:19 Яркость Скачать торрент  

Перевод: Любительский (многоголосый закадровый) [BaibaKo]

и это правильно



12-01-2018 22:01 Яркость Скачать торрент  

Почему эту версию мало кто скачал



14-01-2018 20:27 Яркость Скачать торрент  

MaxBenzin писал(а):

Почему эту версию мало кто скачал

А толку качать 22 гига вебрипа, ладно бы с блюрея



08-02-2018 14:34 Яркость Скачать торрент  

А будет 4К с блюрея?))



15-07-2018 18:24 Яркость Скачать торрент  

А где русские сабы?



15-07-2018 20:44 Яркость Скачать торрент  

блюрей хотя бы полноценный :(
4к и не мечтаем (((
полгода - как только эта версия в ходу...



    Дорогой пользователь! Огромная просьба, поблагодарите релизера, оцените раздачу и оставьте свои комментарий, если Вы скачали Яркость через торрент бесплатно!!
    Комментировать посты могут только пользователи прошедшие не сложную регистрацию
    Показать сообщения:    


    Яркость через торрент
    Скачать бесплатно Яркость
    Яркость скачать торрент
    Яркость смотреть онлайн
    Cкачать фильм Яркость бесплатно
    Яркость скачать торрент в хорошем качестве
    Яркость смотреть онлайн бесплатно в хорошем качестве
    Вы не можете начинать темы
    Вы не можете отвечать на сообщения
    Вы не можете редактировать свои сообщения
    Вы не можете удалять свои сообщения
    Вы не можете голосовать в опросах
    Вы не можете прикреплять файлы к сообщениям
    Вы можете скачивать файлы
    Яркость / Bright [2017 г., фантастика, фэнтези, боевик, UHD WEBRip 2160p] MVO [BaibaKo] + ENG + Subs смотреть онлайн, скачать торрент picoco.icu