Достать ножи: Стеклянная луковица

MVO

Добыча

Дубляж

Уэнсдэй

1 сезон

Тор

Дубляж

13 клиническая

1 сезон

Жестокая ночь

MVO

Одни из нас

1 сезон

Deluxe

pack

Рекомендуем

30

Пиратка

ВАЖНО

ВАЖНО

Ghostwire

Пиратка

jed

RePack

nioh2

RePack

RDR2

RePack

NEED FOR SPEED™ PAYBACK

RePack

скачать торрент

Кинопоиск HD

Острые козырьки 6 сезон

6 сезон

FAR CRY 6

RePack

скачать торрент

Лицензия

скачать торрент

MVO

1

1 сезон

скачать торрент

1 сезон

скачать торрент

Лицензия

  

Гринч – похититель Рождества / How the Grinch Stole Christmas (Рон Ховард) [2000, фэнтези, комедия, семейный, UHD BDRemux 2160p] AVO+MVO (rus,ukr) +DVO+Дубляж [Лицензия]

Гринч – похититель Рождества через торрент 5050.piratbit.fun

Размер: 58.48 GB | Добавлен: 5 лет 1 мес. назад | Торрент скачан:37 раз
Смотреть онлайн | Скачать | Поддержите нас   

30-12-2017 07:23 Гринч – похититель Рождества Скачать торрент  

Гринч – похититель Рождества / How the Grinch Stole ChristmasГод выпуска: 2000
Страна: фэнтези, комедия, семейный
Жанр: фэнтези, комедия, семейный
Продолжительность: 01:44:56

Перевод:

Дублированный (Лицензия EUR),
Профессиональный (многоголосый, закадровый) (Карусель #1, Карусель #2),
Профессиональный (двухголосый, закадровый) (Премьер-Видео),
Авторский (одноголосый, закадровый) (Живов)

Субтитры: английские

Режиссер: Рон Ховард

rating

В ролях:

Джим Керри, Тейлор Момсен, Келли Джеффри Тэмбор, Кристин Барански, Билл Ирвин, Молли Шеннон, Клинт Ховард, Джош Райан Эванс, Минди Стерлинг

Описание:

Жил-был в городе Ктограде человечек, и звали его — Гринч. Был он весь зеленый и волосатый, никто его не любил. Обиделся Гринч на ктовичей и ушел жить на одинокую, обдуваемую всеми ветрами гору. Сидел там в своей пещере и злился на весь свет. Больше всего Гринч ненавидел Рождество. В то время, как все население Ктограда веселилось от души, барометр и без того всегда плохого настроения Гринча показывал нечто ужасное.
Каждое Рождество становилось для зеленого отшельника страшной пыткой. И вот однажды злобный житель горы решил покончить с этим праздником раз и навсегда. Пока беззаботные ктовичи сладко спали впредпраздничную ночь, вероломный Гринч решил украсть у горожан их Рождество.

Качество: UHD BDRemux 2160p
Формат: MKV
Видео кодек: HEVC
Аудио кодек: AC3/DTS

Видео: HEVC/H.265, 3840x2160p, (16:9), 60.5 Mb/s, 23,976 fps
Аудио#1: DTS-HD MA, 8 ch, 6642 kbps - Английский
Аудио#2: DTS-HD MA, 6 ch, 3653 kbps - Русский, Ю.Живов
Аудио#3: DTS-HD MA, 6 ch, 4298 kbps - Русский, Карусель #1
Аудио#4: DTS-HD MA, 6 ch, 3285 kbps - Русский, Карусель #2
Аудио#5: AC3, 2 ch, 192 kbps - Русский, Премьер-Видео
Аудио#6: DTS, 6 ch, 768 kbps - Русский, Дубляж
Аудио#7: AC3, 6 ch, 448 kbps - Украинский
скриншот  скриншот  скриншот  скриншот  

Video
ID : 1
Format : HEVC
Format/Info : High Efficiency Video Coding
Format profile : Main [email protected]@High
Codec ID : V_MPEGH/ISO/HEVC
Duration : 1 h 44 min
Bit rate : 60.5 Mb/s
Width : 3 840 pixels
Height : 2 160 pixels
Display aspect ratio : 16:9
Frame rate mode : Constant
Frame rate : 23.976 (24000/1001) FPS
Color space : YUV
Chroma subsampling : 4:2:0 (Type 2)
Bit depth : 10 bits
Bits/(Pixel*Frame) : 0.304
Stream size : 44.3 GiB (76%)
Writing library : ATEME Titan File 3.8.3 (4.8.3.0)
Default : Yes
Forced : No
Color range : Limited
Color primaries : BT.2020
Transfer characteristics : PQ
Matrix coefficients : BT.2020 non-constant
Mastering display color pri : R: x=0.680000 y=0.320000, G: x=0.265000 y=0.690000, B: x=0.150000 y=0.060000, White point: x=0.312700 y=0.329000
Mastering display luminance : min: 0.0050 cd/m2, max: 1000.0000 cd/m2
Maximum Content Light Level : 1000 cd/m2
Maximum Frame-Average Light : 249 cd/m2

Audio #1
ID : 2
Format : DTS
Format/Info : Digital Theater Systems
Format profile : X / MA / Core
Mode : 16
Format settings, Endianness : Big
Codec ID : A_DTS
Duration : 1 h 44 min
Bit rate mode : Variable / Variable / Constant
Bit rate : 6 642 kb/s / 6 642 kb/s / 1 509 kb/s
Channel(s) : Object Based / 8 channels / 6 channels
Channel positions : Object Based / Front: L C R, Side: L R, Back: L R, LFE / Front: L C R, Side: L R, LFE
Sampling rate : / 48.0 kHz / 48.0 kHz
Frame rate : 93.750 FPS (512 SPF)
Bit depth : / 24 bits / 24 bits
Compression mode : / Lossless / Lossy
Stream size : 4.87 GiB (8%)
Title : Английский
Language : English
Default : Yes
Forced : No

Audio #2
ID : 3
Format : DTS
Format/Info : Digital Theater Systems
Format profile : MA / Core
Mode : 16
Format settings, Endianness : Big
Codec ID : A_DTS
Duration : 1 h 44 min
Bit rate mode : Variable / Constant
Bit rate : 3 653 kb/s / 1 509 kb/s
Channel(s) : 6 channels
Channel positions : Front: L C R, Side: L R, LFE
Sampling rate : 48.0 kHz
Frame rate : 93.750 FPS (512 SPF)
Bit depth : 24 bits
Compression mode : Lossless / Lossy
Stream size : 2.68 GiB (5%)
Title : Авторский одноголосый Живов
Language : Russian
Default : No
Forced : No

Audio #3
ID : 4
Format : DTS
Format/Info : Digital Theater Systems
Format profile : MA / Core
Mode : 16
Format settings, Endianness : Big
Codec ID : A_DTS
Duration : 1 h 44 min
Bit rate mode : Variable / Constant
Bit rate : 4 298 kb/s / 1 509 kb/s
Channel(s) : 6 channels
Channel positions : Front: L C R, Side: L R, LFE
Sampling rate : 48.0 kHz
Frame rate : 93.750 FPS (512 SPF)
Bit depth : 24 bits
Compression mode : Lossless / Lossy
Stream size : 3.15 GiB (5%)
Title : Многоголосый закадровый Карусель #1
Language : Russian
Default : No
Forced : No

Audio #4
ID : 5
Format : DTS
Format/Info : Digital Theater Systems
Format profile : MA / Core
Mode : 16
Format settings, Endianness : Big
Codec ID : A_DTS
Duration : 1 h 44 min
Bit rate mode : Variable / Constant
Bit rate : 3 285 kb/s / 1 509 kb/s
Channel(s) : 6 channels
Channel positions : Front: L C R, Side: L R, LFE
Sampling rate : 48.0 kHz
Frame rate : 93.750 FPS (512 SPF)
Bit depth : 24 bits
Compression mode : Lossless / Lossy
Stream size : 2.41 GiB (4%)
Title : Многоголосый закадровый Карусель #2
Language : Russian
Default : No
Forced : No

Audio #5
ID : 6
Format : AC-3
Format/Info : Audio Coding 3
Format settings, Endianness : Big
Codec ID : A_AC3
Duration : 1 h 44 min
Bit rate mode : Constant
Bit rate : 192 kb/s
Channel(s) : 2 channels
Channel positions : Front: L R
Sampling rate : 48.0 kHz
Frame rate : 31.250 FPS (1536 SPF)
Bit depth : 16 bits
Compression mode : Lossy
Stream size : 144 MiB (0%)
Title : Двухголосый закадровый Премьер-Видео
Language : Russian
Service kind : Complete Main
Default : No
Forced : No

Audio #6
ID : 7
Format : DTS
Format/Info : Digital Theater Systems
Mode : 16
Format settings, Endianness : Big
Codec ID : A_DTS
Duration : 1 h 44 min
Bit rate mode : Constant
Bit rate : 768 kb/s
Channel(s) : 6 channels
Channel positions : Front: L C R, Side: L R, LFE
Sampling rate : 48.0 kHz
Frame rate : 93.750 FPS (512 SPF)
Bit depth : 24 bits
Compression mode : Lossy
Stream size : 576 MiB (1%)
Title : Дубляж BD EUR
Language : Russian
Default : No
Forced : No

Audio #7
ID : 8
Format : AC-3
Format/Info : Audio Coding 3
Format settings, Endianness : Big
Codec ID : A_AC3
Duration : 1 h 38 min
Bit rate mode : Constant
Bit rate : 448 kb/s
Channel(s) : 6 channels
Channel positions : Front: L C R, Side: L R, LFE
Sampling rate : 48.0 kHz
Frame rate : 31.250 FPS (1536 SPF)
Bit depth : 16 bits
Compression mode : Lossy
Stream size : 314 MiB (1%)
Title : Многоголосый закадровый ICTV
Language : Ukrainian
Service kind : Complete Main
Default : No
Forced : No

Text #1
ID : 9
Format : PGS
Muxing mode : zlib
Codec ID : S_HDMV/PGS
Codec ID/Info : Picture based subtitle format used on BDs/HD-DVDs
Duration : 1 h 43 min
Bit rate : 36.5 kb/s
Count of elements : 2842
Stream size : 27.0 MiB (0%)
Language : English
Default : Yes
Forced : No

Text #2
ID : 10
Format : PGS
Muxing mode : zlib
Codec ID : S_HDMV/PGS
Codec ID/Info : Picture based subtitle format used on BDs/HD-DVDs
Duration : 1 h 44 min
Bit rate : 57.8 kb/s
Count of elements : 3502
Stream size : 43.2 MiB (0%)
Language : English
Default : No
Forced : No

Menu
00:00:00.000 : en:Chapter 1
00:03:38.384 : en:Chapter 2
00:10:26.792 : en:Chapter 3
00:17:50.819 : en:Chapter 4
00:19:21.952 : en:Chapter 5
00:23:36.498 : en:Chapter 6
00:33:29.090 : en:Chapter 7
00:36:54.795 : en:Chapter 8
00:44:05.434 : en:Chapter 9
00:47:12.788 : en:Chapter 10
00:52:58.216 : en:Chapter 11
00:59:39.033 : en:Chapter 12
01:02:39.672 : en:Chapter 13
01:07:04.353 : en:Chapter 14
01:14:36.638 : en:Chapter 15
01:18:12.354 : en:Chapter 16
01:22:01.041 : en:Chapter 17
01:27:18.066 : en:Chapter 18
01:30:21.624 : en:Chapter 19
01:37:52.157 : en:Chapter 20




Скачать Гринч – похититель Рождества через торрент http://c.radikal.ru/c34/1712/2e/609a6d6dbd46.jpg Скачать, смотреть онлайн Гринч – похититель Рождества бесплантно в хорошем качестве Описание: Жил-был в городе Ктограде человечек, и звали его — Гринч. Был он весь зеленый и волосатый, никто его не любил. Обиделся Гринч на ... 10 10 4
Info! Золотая раздача, скачанное не засчитывается.
Торрент: Зарегистрирован [2017-12-30 07:23] · скачан: 37 раз
Статус: √ проверено
Размер: 58.48 GB
Как cкачать? Как скачать Гринч – похититель Рождества через торрент | UTorrent

28-11-2019 20:33  


Отключить вcю реклaмy на сайте, в т.ч. и в плеере онлайн просмотра!

    Дорогой пользователь! Огромная просьба, поблагодарите релизера, оцените раздачу и оставьте свои комментарий, если Вы скачали Гринч – похититель Рождества через торрент бесплатно!!
    Комментировать посты могут только пользователи прошедшие не сложную регистрацию
    Показать сообщения:    


    Гринч – похититель Рождества через торрент
    Скачать бесплатно Гринч – похититель Рождества
    Гринч – похититель Рождества скачать торрент
    Гринч – похититель Рождества смотреть онлайн
    Cкачать фильм Гринч – похититель Рождества бесплатно
    Гринч – похититель Рождества скачать торрент в хорошем качестве
    Гринч – похититель Рождества смотреть онлайн бесплатно в хорошем качестве
    Вы не можете начинать темы
    Вы не можете отвечать на сообщения
    Вы не можете редактировать свои сообщения
    Вы не можете удалять свои сообщения
    Вы не можете голосовать в опросах
    Вы не можете прикреплять файлы к сообщениям
    Вы можете скачивать файлы
    Гринч – похититель Рождества / How the Grinch Stole Christmas [2000, фэнтези, комедия, семейный, UHD BDRemux 2160p] AVO+MVO +DVO+Дубляж [Лицензия] смотреть онлайн, скачать торрент picoco.icu