Достать ножи: Стеклянная луковица

MVO

Добыча

Дубляж

Уэнсдэй

1 сезон

Тор

Дубляж

13 клиническая

1 сезон

Жестокая ночь

MVO

Одни из нас

1 сезон

Deluxe

pack

Рекомендуем

30

Пиратка

ВАЖНО

ВАЖНО

Ghostwire

Пиратка

jed

RePack

nioh2

RePack

RDR2

RePack

NEED FOR SPEED™ PAYBACK

RePack

скачать торрент

Кинопоиск HD

Острые козырьки 6 сезон

6 сезон

FAR CRY 6

RePack

скачать торрент

Лицензия

скачать торрент

MVO

1

1 сезон

скачать торрент

1 сезон

скачать торрент

Лицензия

  

Дракула / Dracula Untold (Гари Шор) [2014, Ужасы, фэнтези, боевик, драма, UHD BDRemux 2160p] 3xAVO+Дубляж [Лицензия]

Дракула через торрент 5050.piratbit.fun

Раздают: 1 [ 2 KB/s ]
Размер: 58.99 GB | Добавлен: 5 лет 1 мес. назад | Торрент скачан:43 раза
Смотреть онлайн | Скачать | Поддержите нас   

30-12-2017 07:40 Дракула Скачать торрент  

Дракула / Dracula UntoldГод выпуска: 2014
Страна: США
Жанр: Ужасы, фэнтези, боевик, драма
Продолжительность: 01:32:13

Перевод:

Дублированный | Лицензия,
Авторский (С. Визгунов, А. Дольский, Д. Есарев)

Субтитры: Русские (Full-length, Forced); (PGS) Английские, Украинские (Full-length)

Режиссер: Гари Шор

rating

В ролях:

Люк Эванс, Сара Гадон, Доминик Купер, Арт Паркинсон, Чарльз Дэнс, Дайармейд Мерта, Пол Кэй, Уильям Хьюстон, Ной Хантли, Ронан Вайберт, Зэк МакГоун, Фердинанд Кингсли, Джозеф Лонг, Тор Кристьянссон, Якуб Гершал, Джо Бенжамин, Миш Бойко, Дилан Гвин, Арки Аломар, Фил Зиммерман

Описание:

Влад Дракула был величайшим правителем, доблестным воином и страстным мужчиной. Но судьба свела его с врагом, коварство которого не знало границ. И тогда Дракула заключил сделку — нечеловеческая сила в обмен на самую малость — бессмертную душу…


Качество: UHD BDRemux 2160p
Формат: MKV
Видео кодек: HEVC
Аудио кодек: DTS

Видео: HEVC/H.265, 3840х2160, ~71.5 Mb/s
Аудио#1: DTS, 6 ch, 768 kbps - Русский, Дубляж
Аудио#2: DTS-HD MA, 8 ch, 4625 kbps - Русский, С. Визгунов
Аудио#3: DTS-HD MA, 8 ch, 4684 kbps - Русский, А. Дольский
Аудио#4: DTS-HD MA, 8 ch, 4682 kbps - Русский, Д. Есарев
Аудио#5: DTS:X, 8 ch, 5212 kbps - Английский
скриншот  скриншот  скриншот  скриншот  

Video
ID : 1
Format : HEVC
Format/Info : High Efficiency Video Coding
Format profile : Main [email protected]@High
Codec ID : V_MPEGH/ISO/HEVC
Duration : 1 h 32 min
Bit rate : 71.5 Mb/s
Width : 3 840 pixels
Height : 2 160 pixels
Display aspect ratio : 16:9
Frame rate mode : Constant
Frame rate : 23.976 (24000/1001) FPS
Color space : YUV
Chroma subsampling : 4:2:0 (Type 2)
Bit depth : 10 bits
Bits/(Pixel*Frame) : 0.360
Stream size : 46.1 GiB (78%)
Title : DRACULA_UNTOLD_BD_UHD_HDR_REMUX-BLUEBIRD
Default : Yes
Forced : No
Color range : Limited
Color primaries : BT.2020
Transfer characteristics : PQ
Matrix coefficients : BT.2020 non-constant
Mastering display color pri : R: x=0.680000 y=0.320000, G: x=0.265000 y=0.690000, B: x=0.150000 y=0.060000, White point: x=0.312700 y=0.329000
Mastering display luminance : min: 0.0000 cd/m2, max: 1000.0000 cd/m2

Audio #1
ID : 2
Format : DTS
Format/Info : Digital Theater Systems
Codec ID : A_DTS
Duration : 1 h 32 min
Bit rate mode : Constant
Bit rate : 768 kb/s
Channel(s) : 6 channels
Channel positions : Front: L C R, Side: L R, LFE
Sampling rate : 48.0 kHz
Frame rate : 93.750 FPS (512 SPF)
Bit depth : 24 bits
Compression mode : Lossy
Stream size : 506 MiB (1%)
Title : [Дубляж] DTS 5.1 @ 768 kbps
Language : Russian
Default : Yes
Forced : No

Audio #2
ID : 3
Format : DTS
Format/Info : Digital Theater Systems
Format profile : MA / Core
Codec ID : A_DTS
Duration : 1 h 32 min
Bit rate mode : Variable / Constant
Bit rate : 4 624 kb/s / 1 509 kb/s
Channel(s) : 8 channels / 6 channels
Channel positions : Front: L C R, Side: L R, Back: L R, LFE / Front: L C R, Side: L R, LFE
Sampling rate : 48.0 kHz
Frame rate : 93.750 FPS (512 SPF)
Bit depth : 24 bits
Compression mode : Lossless / Lossy
Stream size : 2.98 GiB (5%)
Title : [VO] DTS-HD MA 7.1 @ 4625 kbps (S. Vizgunov)
Language : Russian
Default : No
Forced : No

Audio #3
ID : 4
Format : DTS
Format/Info : Digital Theater Systems
Format profile : MA / Core
Codec ID : A_DTS
Duration : 1 h 32 min
Bit rate mode : Variable / Constant
Bit rate : 4 683 kb/s / 1 509 kb/s
Channel(s) : 8 channels / 6 channels
Channel positions : Front: L C R, Side: L R, Back: L R, LFE / Front: L C R, Side: L R, LFE
Sampling rate : 48.0 kHz
Frame rate : 93.750 FPS (512 SPF)
Bit depth : 24 bits
Compression mode : Lossless / Lossy
Stream size : 3.02 GiB (5%)
Title : [VO] DTS-HD MA 7.1 @ 4684 kbps (A. Dolskij)
Language : Russian
Default : No
Forced : No

Audio #4
ID : 5
Format : DTS
Format/Info : Digital Theater Systems
Format profile : MA / Core
Codec ID : A_DTS
Duration : 1 h 32 min
Bit rate mode : Variable / Constant
Bit rate : 4 681 kb/s / 1 509 kb/s
Channel(s) : 8 channels / 6 channels
Channel positions : Front: L C R, Side: L R, Back: L R, LFE / Front: L C R, Side: L R, LFE
Sampling rate : 48.0 kHz
Frame rate : 93.750 FPS (512 SPF)
Bit depth : 24 bits
Compression mode : Lossless / Lossy
Stream size : 3.02 GiB (5%)
Title : [VO] DTS-HD MA 7.1 @ 4682 kbps (D. Esarev)
Language : Russian
Default : No
Forced : No

Audio #5
ID : 6
Format : DTS
Format/Info : Digital Theater Systems
Format profile : X / MA / Core
Codec ID : A_DTS
Duration : 1 h 32 min
Bit rate mode : Variable / Variable / Constant
Bit rate : 5 212 kb/s / 5 212 kb/s / 1 509 kb/s
Channel(s) : Object Based / 8 channels / 6 channels
Channel positions : Object Based / Front: L C R, Side: L R, Back: L R, LFE / Front: L C R, Side: L R, LFE
Sampling rate : / 48.0 kHz / 48.0 kHz
Frame rate : 93.750 FPS (512 SPF)
Bit depth : / 24 bits / 24 bits
Compression mode : / Lossless / Lossy
Stream size : 3.36 GiB (6%)
Title : [ORIGINAL] DTS:X @ 7.1 @ 5212 kbps
Language : English
Default : No
Forced : No

Text #1
ID : 7
Format : PGS
Codec ID : S_HDMV/PGS
Codec ID/Info : Picture based subtitle format used on BDs/HD-DVDs
Duration : 1 h 31 min
Bit rate : 18.3 kb/s
Count of elements : 1400
Stream size : 11.9 MiB (0%)
Title : Full-length
Language : Russian
Default : No
Forced : No

Text #2
ID : 8
Format : UTF-8
Codec ID : S_TEXT/UTF8
Codec ID/Info : UTF-8 Plain Text
Duration : 1 h 24 min
Bit rate : 50 b/s
Count of elements : 624
Stream size : 30.9 KiB (0%)
Title : Full-length
Language : Russian
Default : No
Forced : No

Text #3
ID : 9
Format : PGS
Codec ID : S_HDMV/PGS
Codec ID/Info : Picture based subtitle format used on BDs/HD-DVDs
Duration : 1 h 31 min
Bit rate : 17.2 kb/s
Count of elements : 1400
Stream size : 11.2 MiB (0%)
Title : Full-length
Language : Ukrainian
Default : No
Forced : No

Text #4
ID : 10
Format : PGS
Codec ID : S_HDMV/PGS
Codec ID/Info : Picture based subtitle format used on BDs/HD-DVDs
Duration : 1 h 24 min
Bit rate : 25.7 kb/s
Count of elements : 1897
Stream size : 15.4 MiB (0%)
Title : Full-length
Language : English
Default : No
Forced : No

Text #5
ID : 11
Format : PGS
Codec ID : S_HDMV/PGS
Codec ID/Info : Picture based subtitle format used on BDs/HD-DVDs
Duration : 1 h 24 min
Bit rate : 46 b/s
Count of elements : 6
Stream size : 28.8 KiB (0%)
Title : Forced
Language : Russian
Default : Yes
Forced : Yes

Text #6
ID : 12
Format : UTF-8
Codec ID : S_TEXT/UTF8
Codec ID/Info : UTF-8 Plain Text
Duration : 1 h 22 min
Bit rate : 4 b/s
Count of elements : 50
Stream size : 3.01 KiB (0%)
Title : Forced
Language : Russian
Default : No
Forced : No

Menu
00:00:00.000 : en:Chapter 1
00:04:08.289 : en:Chapter 2
00:07:21.566 : en:Chapter 3
00:11:33.818 : en:Chapter 4
00:16:31.699 : en:Chapter 5
00:22:54.664 : en:Chapter 6
00:30:24.447 : en:Chapter 7
00:34:17.764 : en:Chapter 8
00:38:58.044 : en:Chapter 9
00:43:01.370 : en:Chapter 10
00:47:04.738 : en:Chapter 11
00:53:17.736 : en:Chapter 12
00:57:40.832 : en:Chapter 13
01:00:48.311 : en:Chapter 14
01:04:31.033 : en:Chapter 15
01:09:13.190 : en:Chapter 16
01:12:48.614 : en:Chapter 17
01:17:12.878 : en:Chapter 18
01:21:53.658 : en:Chapter 19
01:25:03.556 : en:Chapter 20




Скачать Дракула через торрент http://s019.radikal.ru/i628/1712/14/c72f63f6f9eb.jpg Скачать, смотреть онлайн Дракула бесплантно в хорошем качестве Описание:Влад Дракула был величайшим правителем, доблестным воином и страстным мужчиной. Но судьба свела его с врагом, коварство которого ... 10 10 4
Торрент: Зарегистрирован [2017-12-30 07:40] · скачан: 43 раз
Статус: √ проверено
Размер: 58.99 GB
Как cкачать? Как скачать Дракула через торрент | UTorrent

% Раздел Тема Автор DL S | L
Фильмы 2014 [DVDrip, WEB-DLRip, HDrip] [ 2.63 GB ] Дракула / Dracula Untold | Лицензия | BDRip-AVC, Дубляж Лицензия, 3 x AVO morfyi Скачать
2 | 0
Фильмы [HD 720p, 1080p] (Хороший звук DUB, MVO) [ 4.47 GB ] Дракула / Dracula Untold | Лицензия | 720p, Дубляж Лицензия, 3 x AVO morfyi Скачать
1 | 0
Фильмы (Blu-ray, BD-Remux, HDDVD) [ 21.2 GB ] Дракула / Dracula Untold | Дубляж | BD Remux, Дубляж Ворон Скачать
1 | 0
Фильмы (HD 720p, 1080p) (48-60 fps) [ 3.87 GB ] Дракула / Dracula Untold | DUB | 720p 60fps от еnvy / NNNB еnvy Скачать
2 | 0
Фильмы [HD 720p, 1080p] (Хороший звук DUB, MVO) [ 4.52 GB ] Дракула / Dracula Untold | Лицензия | 720p от potroks potroks Скачать
1 | 0
Фильмы [HD 720p, 1080p] (Хороший звук DUB, MVO) [ 9.1 GB ] Дракула / Dracula Untold | Лицензия | 1080p от potroks potroks Скачать
1 | 0
Фильмы (HD 720p, 1080p) (48-60 fps) [ 4.66 GB ] Дракула / Dracula Untold | Лицензия | 720p, 60fps, Дубляж, Лицензия mimok Скачать
1 | 1

28-11-2019 20:33  


Отключить вcю реклaмy на сайте, в т.ч. и в плеере онлайн просмотра!

    Дорогой пользователь! Огромная просьба, поблагодарите релизера, оцените раздачу и оставьте свои комментарий, если Вы скачали Дракула через торрент бесплатно!!
    Комментировать посты могут только пользователи прошедшие не сложную регистрацию
    Показать сообщения:    


    Дракула через торрент
    Скачать бесплатно Дракула
    Дракула скачать торрент
    Дракула смотреть онлайн
    Cкачать фильм Дракула бесплатно
    Дракула скачать торрент в хорошем качестве
    Дракула смотреть онлайн бесплатно в хорошем качестве
    Вы не можете начинать темы
    Вы не можете отвечать на сообщения
    Вы не можете редактировать свои сообщения
    Вы не можете удалять свои сообщения
    Вы не можете голосовать в опросах
    Вы не можете прикреплять файлы к сообщениям
    Вы можете скачивать файлы
    Дракула / Dracula Untold [2014, Ужасы, фэнтези, боевик, драма, UHD BDRemux 2160p] 3xAVO+Дубляж [Лицензия] смотреть онлайн, скачать торрент picoco.icu