Достать ножи: Стеклянная луковица

MVO

Добыча

Дубляж

Уэнсдэй

1 сезон

Тор

Дубляж

13 клиническая

1 сезон

Жестокая ночь

MVO

Одни из нас

1 сезон

Deluxe

pack

Рекомендуем

30

Пиратка

ВАЖНО

ВАЖНО

Ghostwire

Пиратка

jed

RePack

nioh2

RePack

RDR2

RePack

NEED FOR SPEED™ PAYBACK

RePack

скачать торрент

Кинопоиск HD

Острые козырьки 6 сезон

6 сезон

FAR CRY 6

RePack

скачать торрент

Лицензия

скачать торрент

MVO

1

1 сезон

скачать торрент

1 сезон

скачать торрент

Лицензия

  

Поезд на Юму / 3:10 to Yuma (Джеймс Мэнголд) [2007, Драма, криминал, приключения, вестерн, UHD BDRemux 2160p] Дубляж+DVO+5xAVO+2xMVO (ukr)

Поезд на Юму через торрент 5050.piratbit.fun

Размер: 80.78 GB | Добавлен: 3 года 3 мес. назад | Торрент скачан:16 раз
Смотреть онлайн | Скачать | Поддержите нас   

31-12-2017 12:29 Поезд на Юму Скачать торрент  

Поезд на Юму / 3:10 to Yuma Год выпуска: 2007
Страна: США
Жанр: Драма, криминал, приключения, вестерн
Продолжительность: 02:02:25
Перевод: Дублированный, профессиональный двухголосый, авторский
Субтитры: русские, английские (full, SDH)

Режиссер: Джеймс Мэнголд

rating

В ролях: Расселл Кроу, Кристиан Бэйл, Логан Лерман, Даллас Робертс, Бен Фостер, Питер Фонда, Кевин Дюран, Алан Тьюдик, Люче Рэйнс, Гретхен Мол

Описание: После ареста известного бандита Бена Уэйда его банда продолжает угрожать местным жителям. Ветеран Гражданской войны и владелец небольшого ранчо Дэн Эванс соглашается тайно доставить Уэйда в ближайший город с железнодорожной станцией, чтобы того доставили на поезде в форт Юма. Как только они останавливаются в гостинице, становится очевидным, что тайна раскрыта, и за обоими начинается охота…

Качество: UHD BDRemux 2160p
Формат: MKV

Видео: MPEG-H HEVC Video / 79677 kbps / 3840x2160 / 23.976 fps / 16:9 / Main 10 Profile 5.1 High / 4:2:0 / 10 bits / HDR10 / BT.2020 /
Аудио 1: Russian DTS-HD Master Audio / 5.1 / 48 kHz / 1987 kbps / 16-bit (DTS Core: 5.1 / 48 kHz / 1509 kbps / 16-bit) |Дубляж, Blu-Ray|
Аудио 2: Russian DTS / 5.1 / 48 kHz / 1510kbps / 24-bit |DVO, П. Гланц и И. Королёва|
Аудио 3: Russian AC3 / 5.1 / 48 kHz / 640 kbps / 16-bit |А. Гаврилов|
Аудио 4: Russian AC3 / 5.1 / 48 kHz / 384 kbps / 16-bit |Ю. Живов|
Аудио 5: Russian AC3 / 5.1 / 48 kHz / 448 kbps / 16-bit |Ю. Немахов|
Аудио 6: Russian DTS-HD Master Audio / 7.1 / 48 kHz / 2530 kbps / 16-bit (DTS Core: 5.1 / 48 kHz / 1509 kbps / 16-bit) |М. Яроцкий|
Аудио 7: Ukrainian AC3 / 5.1 / 48 kHz / 384 kbps / 16-bit |MVO, ТакТребаПродакшн|
Аудио 8: Ukrainian AC3 / 5.1 / 48 kHz / 384 kbps / 16-bit |MVO, Украина|
Аудио 9: English DTS:X/DTS-HD Master Audio / 7.1-X / 48 kHz / 6290 kbps / 24-bit (DTS Core: 5.1 / 48 kHz / 1509 kbps / 24-bit) |original|
Аудио 10: English AC3 / 2.0 / 48 kHz / 224 kbps / 16-bit |Commentary by Director James Mangold|
скриншот  скриншот  скриншот  скриншот  скриншот  

Общее
Уникальный идентификатор : 72495050936015588676498098052776478385 (0x368A09F8163C512318F44B9EC59E46B1)
Полное имя : H:\UHD\Поезд на Юму.2007.UHD.Blu-Ray.Remux.2160p.mkv
Формат : Matroska
Версия формата : Version 4
Размер файла : 80,8 Гбайт
Продолжительность : 2 ч. 2 м.
Режим общего битрейта : Переменный
Общий поток : 94,5 Мбит/сек
Дата кодирования : UTC 2019-10-23 20:00:29
Программа кодирования : mkvmerge v38.0.0 ('The Silent Type') 64-bit
Библиотека кодирования : libebml v1.3.9 + libmatroska v1.5.2
Attachments : poster.jpg

Видео
Идентификатор : 1
Формат : HEVC
Формат/Информация : High Efficiency Video Coding
Профиль формата : Main [email protected]@High
HDR_Format/String : SMPTE ST 2086, HDR10 compatible
Идентификатор кодека : V_MPEGH/ISO/HEVC
Продолжительность : 2 ч. 2 м.
Битрейт : 79,7 Мбит/сек
Ширина : 3840 пикселей
Высота : 2160 пикселей
Соотношение сторон : 16:9
Режим частоты кадров : Постоянный
Частота кадров : 23,976 (24000/1001) кадра/сек
Цветовое пространство : YUV
Субдискретизация насыщенности : 4:2:0 (Type 2)
Битовая глубина : 10 бит
Бит/(Пиксели*Кадры) : 0.401
Размер потока : 68,1 Гбайт (84%)
Библиотека кодирования : ATEME Titan File 3.7.9 (4.7.9.0)
Default : Да
Forced : Нет
Цветовой диапазон : Limited
Основные цвета : BT.2020
Характеристики трансфера : PQ
Коэффициенты матрицы : BT.2020 non-constant
MasteringDisplay_ColorPrimaries : Display P3
MasteringDisplay_Luminance : min: 0.0000 cd/m2, max: 1000 cd/m2
MaxCLL : 1000 cd/m2
MaxFALL : 720 cd/m2

Аудио #1
Идентификатор : 2
Формат : DTS XLL
Формат/Информация : Digital Theater Systems
Коммерческое название : DTS-HD Master Audio
Идентификатор кодека : A_DTS
Продолжительность : 2 ч. 2 м.
Вид битрейта : Переменный
Битрейт : 1987 Кбит/сек
Каналы : 6 каналов
ChannelLayout : C L R Ls Rs LFE
Частота : 48,0 КГц
Частота кадров : 93,750 кадра/сек (512 SPF)
Битовая глубина : 16 бит
Метод сжатия : Без потерь
Размер потока : 1,70 Гбайт (2%)
Заголовок : Дубляж, Blu-Ray
Язык : Russian
Default : Да
Forced : Нет

Аудио #2
Идентификатор : 3
Формат : DTS
Формат/Информация : Digital Theater Systems
Идентификатор кодека : A_DTS
Продолжительность : 2 ч. 2 м.
Вид битрейта : Постоянный
Битрейт : 1510 Кбит/сек
Каналы : 6 каналов
ChannelLayout : C L R Ls Rs LFE
Частота : 48,0 КГц
Частота кадров : 93,750 кадра/сек (512 SPF)
Битовая глубина : 24 бит
Метод сжатия : С потерями
Размер потока : 1,29 Гбайт (2%)
Заголовок : DVO, П. Гланц и И. Королёва
Язык : Russian
Default : Нет
Forced : Нет

Аудио #3
Идентификатор : 4
Формат : AC-3
Формат/Информация : Audio Coding 3
Коммерческое название : Dolby Digital
Идентификатор кодека : A_AC3
Продолжительность : 2 ч. 2 м.
Вид битрейта : Постоянный
Битрейт : 640 Кбит/сек
Каналы : 6 каналов
ChannelLayout : L R C LFE Ls Rs
Частота : 48,0 КГц
Частота кадров : 31,250 кадров/сек (1536 SPF)
Метод сжатия : С потерями
Размер потока : 560 Мбайт (1%)
Заголовок : А. Гаврилов
Язык : Russian
ServiceKind/String : Complete Main
Default : Нет
Forced : Нет

Аудио #4
Идентификатор : 5
Формат : AC-3
Формат/Информация : Audio Coding 3
Коммерческое название : Dolby Digital
Идентификатор кодека : A_AC3
Продолжительность : 2 ч. 2 м.
Вид битрейта : Постоянный
Битрейт : 384 Кбит/сек
Каналы : 6 каналов
ChannelLayout : L R C LFE Ls Rs
Частота : 48,0 КГц
Частота кадров : 31,250 кадров/сек (1536 SPF)
Метод сжатия : С потерями
Размер потока : 336 Мбайт (0%)
Заголовок : Ю. Живов
Язык : Russian
ServiceKind/String : Complete Main
Default : Нет
Forced : Нет

Аудио #5
Идентификатор : 6
Формат : AC-3
Формат/Информация : Audio Coding 3
Коммерческое название : Dolby Digital
Идентификатор кодека : A_AC3
Продолжительность : 2 ч. 2 м.
Вид битрейта : Постоянный
Битрейт : 448 Кбит/сек
Каналы : 6 каналов
ChannelLayout : L R C LFE Ls Rs
Частота : 48,0 КГц
Частота кадров : 31,250 кадров/сек (1536 SPF)
Метод сжатия : С потерями
Размер потока : 392 Мбайт (0%)
Заголовок : Ю. Немахов
Язык : Russian
ServiceKind/String : Complete Main
Default : Нет
Forced : Нет

Аудио #6
Идентификатор : 7
Формат : DTS XLL
Формат/Информация : Digital Theater Systems
Коммерческое название : DTS-HD Master Audio
Идентификатор кодека : A_DTS
Продолжительность : 2 ч. 2 м.
Вид битрейта : Переменный
Битрейт : 2530 Кбит/сек
Каналы : 8 каналов
ChannelLayout : C L R LFE Lb Rb Lss Rss
Частота : 48,0 КГц
Частота кадров : 93,750 кадра/сек (512 SPF)
Битовая глубина : 16 бит
Метод сжатия : Без потерь
Размер потока : 2,16 Гбайт (3%)
Заголовок : М. Яроцкий
Язык : Russian
Default : Нет
Forced : Нет

Аудио #7
Идентификатор : 8
Формат : AC-3
Формат/Информация : Audio Coding 3
Коммерческое название : Dolby Digital
Идентификатор кодека : A_AC3
Продолжительность : 2 ч. 2 м.
Вид битрейта : Постоянный
Битрейт : 384 Кбит/сек
Каналы : 6 каналов
ChannelLayout : L R C LFE Ls Rs
Частота : 48,0 КГц
Частота кадров : 31,250 кадров/сек (1536 SPF)
Метод сжатия : С потерями
Размер потока : 336 Мбайт (0%)
Заголовок : MVO, ТакТребаПродакшн
Язык : Ukrainian
ServiceKind/String : Complete Main
Default : Нет
Forced : Нет

Аудио #8
Идентификатор : 9
Формат : AC-3
Формат/Информация : Audio Coding 3
Коммерческое название : Dolby Digital
Идентификатор кодека : A_AC3
Продолжительность : 2 ч. 2 м.
Вид битрейта : Постоянный
Битрейт : 384 Кбит/сек
Каналы : 6 каналов
ChannelLayout : L R C LFE Ls Rs
Частота : 48,0 КГц
Частота кадров : 31,250 кадров/сек (1536 SPF)
Метод сжатия : С потерями
Размер потока : 336 Мбайт (0%)
Заголовок : MVO, Украина
Язык : Ukrainian
ServiceKind/String : Complete Main
Default : Нет
Forced : Нет

Аудио #9
Идентификатор : 10
Формат : DTS XLL X
Формат/Информация : Digital Theater Systems
Коммерческое название : DTS-HD Master Audio
Идентификатор кодека : A_DTS
Продолжительность : 2 ч. 2 м.
Вид битрейта : Переменный
Битрейт : 6290 Кбит/сек
Каналы : 8 каналов
Channel(s)_Original : Object Based
ChannelLayout_Original : Object Based
Частота : 48,0 КГц
Частота кадров : 93,750 кадра/сек (512 SPF)
Битовая глубина : 24 бит
Размер потока : 5,38 Гбайт (7%)
Язык : English
Default : Нет
Forced : Нет

Аудио #10
Идентификатор : 11
Формат : AC-3
Формат/Информация : Audio Coding 3
Коммерческое название : Dolby Digital
Идентификатор кодека : A_AC3
Продолжительность : 2 ч. 2 м.
Вид битрейта : Постоянный
Битрейт : 224 Кбит/сек
Каналы : 2 канала
ChannelLayout : L R
Частота : 48,0 КГц
Частота кадров : 31,250 кадров/сек (1536 SPF)
Метод сжатия : С потерями
Размер потока : 196 Мбайт (0%)
Заголовок : Commentary by Director James Mangold
Язык : English
ServiceKind/String : Complete Main
Default : Нет
Forced : Нет

Текст #1
Идентификатор : 12
Формат : UTF-8
Идентификатор кодека : S_TEXT/UTF8
Идентификатор кодека/Информация : UTF-8 Plain Text
Продолжительность : 1 ч. 57 м.
Битрейт : 62 бит/сек
ElementCount : 1188
Размер потока : 54,1 Кбайт (0%)
Язык : Russian
Default : Нет
Forced : Нет

Текст #2
Идентификатор : 13
Формат : UTF-8
Идентификатор кодека : S_TEXT/UTF8
Идентификатор кодека/Информация : UTF-8 Plain Text
Продолжительность : 2 ч. 0 м.
Битрейт : 38 бит/сек
ElementCount : 1240
Размер потока : 33,7 Кбайт (0%)
Заголовок : full
Язык : English
Default : Нет
Forced : Нет

Текст #3
Идентификатор : 14
Формат : UTF-8
Идентификатор кодека : S_TEXT/UTF8
Идентификатор кодека/Информация : UTF-8 Plain Text
Продолжительность : 1 ч. 55 м.
Битрейт : 42 бит/сек
ElementCount : 1199
Размер потока : 36,1 Кбайт (0%)
Заголовок : SDH
Язык : English
Default : Нет
Forced : Нет

Меню
00:00:00.000 : en:Chapter 01
00:05:32.457 : en:Chapter 02
00:14:10.391 : en:Chapter 03
00:19:02.892 : en:Chapter 04
00:27:05.165 : en:Chapter 05
00:37:58.526 : en:Chapter 06
00:41:17.892 : en:Chapter 07
00:51:56.989 : en:Chapter 08
00:57:34.201 : en:Chapter 09
01:05:45.984 : en:Chapter 10
01:11:42.340 : en:Chapter 11
01:18:30.581 : en:Chapter 12
01:26:38.860 : en:Chapter 13
01:35:09.287 : en:Chapter 14
01:43:04.678 : en:Chapter 15
01:50:30.499 : en:Chapter 16




Скачать Поезд на Юму через торрент http://d.radikal.ru/d28/1712/4b/a130e3361499.jpg Скачать, смотреть онлайн Поезд на Юму бесплантно в хорошем качестве Описание: После ареста известного бандита Бена Уэйда его банда продолжает угрожать местным жителям. Ветеран Гражданской войны и владелец ... 10 10 3
Торрент: Зарегистрирован [2019-10-25 15:14] · скачан: 16 раз
Статус: √ проверено
Размер: 80.78 GB
Как cкачать? Как скачать Поезд на Юму через торрент | UTorrent

% Раздел Тема Автор DL S | L
Фильмы [HD 720p, 1080p] (Хороший звук DUB, MVO) [ 7.02 GB ] Поезд на Юму / 3:10 to Yuma | DUB | 720p msltel Скачать
1 | 0
Фильмы [HD 720p, 1080p] (Хороший звук DUB, MVO) [ 16.4 GB ] Поезд на Юму / 3:10 to Yuma | DUB | 1080p msltel Скачать
1 | 0
Фильмы [HD 720p, 1080p] (Хороший звук DUB, MVO) [ 7.75 GB ] Поезд на Юму / 3:10 to Yuma | DUB | 720p, DUB, DVO, AVO _denis_100 Скачать
1 | 0
Фильмы 2006-2008 [ 744 MB ] Поезд на Юму / 3:10 to Yuma | | HDRip Чувак Скачать
1 | 0
Фильмы [HD 720p, 1080p] (Хороший звук DUB, MVO) [ 12.83 GB ] Поезд на Юму / 3:10 to Yuma | | 1080p Чувак Скачать
1 | 0
Фильмы [HD 720p, 1080p] (Хороший звук DUB, MVO) [ 4.37 GB ] Поезд на Юму / 3:10 to Yuma | | 720p/DVD5 diletant Скачать
1 | 0
Фильмы 2006-2008 [ 1.36 GB ] Поезд на Юму / 3:10 to Yuma | | DVDRip sergei_s.75 Скачать
1 | 0

28-11-2019 20:33  


Отключить вcю реклaмy на сайте, в т.ч. и в плеере онлайн просмотра!

    Дорогой пользователь! Огромная просьба, поблагодарите релизера, оцените раздачу и оставьте свои комментарий, если Вы скачали Поезд на Юму через торрент бесплатно!!
    Комментировать посты могут только пользователи прошедшие не сложную регистрацию
    Показать сообщения:    


    Поезд на Юму через торрент
    Скачать бесплатно Поезд на Юму
    Поезд на Юму скачать торрент
    Поезд на Юму смотреть онлайн
    Cкачать фильм Поезд на Юму бесплатно
    Поезд на Юму скачать торрент в хорошем качестве
    Поезд на Юму смотреть онлайн бесплатно в хорошем качестве
    Вы не можете начинать темы
    Вы не можете отвечать на сообщения
    Вы не можете редактировать свои сообщения
    Вы не можете удалять свои сообщения
    Вы не можете голосовать в опросах
    Вы не можете прикреплять файлы к сообщениям
    Вы можете скачивать файлы
    Поезд на Юму / 3:10 to Yuma [2007, Драма, криминал, приключения, вестерн, UHD BDRemux 2160p] Дубляж+DVO+5xAVO+2xMVO смотреть онлайн, скачать торрент picoco.icu