Достать ножи: Стеклянная луковица

MVO

Добыча

Дубляж

Уэнсдэй

1 сезон

Тор

Дубляж

13 клиническая

1 сезон

Жестокая ночь

MVO

Одни из нас

1 сезон

Deluxe

pack

Рекомендуем

30

Пиратка

ВАЖНО

ВАЖНО

Ghostwire

Пиратка

jed

RePack

nioh2

RePack

RDR2

RePack

NEED FOR SPEED™ PAYBACK

RePack

скачать торрент

Кинопоиск HD

Острые козырьки 6 сезон

6 сезон

FAR CRY 6

RePack

скачать торрент

Лицензия

скачать торрент

MVO

1

1 сезон

скачать торрент

1 сезон

скачать торрент

Лицензия

  

Парфюмер: история одного убийцы / Perfume: The Story of a Murderer (Том Тыквер) [2006, Триллер, драма, криминал, UHD BDRemux 2160p] Дубляж (rus, ukr) +2xAVO

Парфюмер: история одного убийцы через торрент 5050.piratbit.fun

Размер: 57.61 GB | Добавлен: 5 лет назад | Торрент скачан:56 раз
Смотреть онлайн | Скачать | Поддержите нас   

14-01-2018 10:01 Парфюмер: история одного убийцы Скачать торрент  

Парфюмер: история одного убийцы / Perfume: The Story of a Murderer Год выпуска: 2006
Страна: Германия, Франция, Испания, США
Жанр: Триллер, драма, криминал
Продолжительность: 02:27:22
Перевод: Дубляж, авторский
Субтитры: Русские, английские

Режиссер: Том Тыквер

rating

В ролях:

Бен Уишоу, Дастин Хоффман, Алан Рикман, Рэйчел Херд-Вуд, Биргит Минихмайр, Шан Томас, Тимоти Дэвис, Дора Романо, Сара Форестье, Дэвид Колдер, Джон Хёрт, Франсеск Альбиоль, Гонсало Каниль, Саймон Чэндлер, Ричард Феликс

Описание:

Жестокий, никогда не знавший любви, сирота Жан-Батист Гренуй настоящих успехов достиг лишь на одном поприще - среди парфюмеров ему никогда не было равных. По его духам сходит с ума весь высший свет, не подозревая о том, какой страшной ценой будет получен последний, идеальный аромат.

Качество: UHD BDRemux 2160p
Формат: MKV

Видео: HEVC HDR, 48277 Кбит/с, 3840x2160, 24.000 кадр/с
Аудио#1: Русский: DTS, 6 ch, 768 Кбит/с - Дубляж
Аудио#2: Русский: DTS-HD MA, 6 ch, 2247 Кбит/с - Авторский (Андрей Гаврилов)
Аудио#3: Русский: DTS-HD MA, 6 ch, 2248 Кбит/с - Авторский (Юрий Немахов)
Аудио#4: Украинский АС3, 6 ch, 384 Кбит/с
Аудио#5: Английский DTS-HD MA, 6 ch, 2046 Кбит/с - Оригинал
скриншот  скриншот  скриншот  скриншот  скриншот  скриншот  

Complete name : D:\Blu-Ray\Perfume.2006.UHD.HDR.BDRemux.2160p.NovaLan.mkv
Format : Matroska
Format version : Version 4 / Version 2
File size : 57.6 GiB
Duration : 2 h 27 min
Overall bit rate : 56.0 Mb/s
Movie name : Perfume: The Story of a Murderer 2006 - NovaLan
Encoded date : UTC 2018-01-13 20:33:58
Writing application : mkvmerge v19.0.0 ('Brave Captain') 64-bit
Writing library : libebml v1.3.5 + libmatroska v1.4.8

Video
ID : 1
Format : HEVC
Format/Info : High Efficiency Video Coding
Format profile : Main [email protected]@High
Codec ID : V_MPEGH/ISO/HEVC
Duration : 2 h 27 min
Bit rate : 48.3 Mb/s
Width : 3 840 pixels
Height : 2 160 pixels
Display aspect ratio : 16:9
Frame rate mode : Constant
Frame rate : 24.000 FPS
Color space : YUV
Chroma subsampling : 4:2:0 (Type 2)
Bit depth : 10 bits
Bits/(Pixel*Frame) : 0.243
Stream size : 49.7 GiB (86%)
Title : Perfume: The Story of a Murderer 2006 - NovaLan
Writing library : x265 2.0+9-2737c6ff5f80:[Windows][GCC 5.3.1][64 bit] 10bit
Encoding settings : wpp / ctu=64 / min-cu-size=8 / max-tu-size=32 / tu-intra-depth=1 / tu-inter-depth=1 / me=1 / subme=2 / merange=57 / no-rect / no-amp / max-merge=2 / temporal-mvp / no-early-skip / rskip / rdpenalty=0 / no-tskip / no-tskip-fast / strong-intra-smoothing / no-lossless / no-cu-lossless / no-constrained-intra / no-fast-intra / no-open-gop / no-temporal-layers / interlace=0 / keyint=24 / min-keyint=1 / scenecut=40 / rc-lookahead=20 / lookahead-slices=8 / bframes=4 / bframe-bias=0 / b-adapt=2 / ref=3 / limit-refs=3 / no-limit-modes / weightp / no-weightb / aq-mode=1 / qg-size=32 / aq-strength=1.00 / cbqpoffs=0 / crqpoffs=0 / rd=3 / psy-rd=2.00 / rdoq-level=0 / psy-rdoq=0.00 / no-rd-refine / signhide / deblock=0:0 / sao / no-sao-non-deblock / b-pyramid / cutree / no-intra-refresh / rc=abr / bitrate=50000 / qcomp=0.60 / qpmin=0 / qpmax=69 / qpstep=4 / vbv-maxrate=65000 / vbv-bufsize=50000 / ipratio=1.40 / pbratio=1.30
Default : Yes
Forced : No
Color range : Limited
Color primaries : BT.2020
Transfer characteristics : PQ
Matrix coefficients : BT.2020 non-constant
Mastering display color pri : Display P3
Mastering display luminance : min: 0.0050 cd/m2, max: 1000 cd/m2
Maximum Content Light Level : 10000 cd/m2
Maximum Frame-Average Light : 400 cd/m2

Audio #1
ID : 2
Format : DTS
Format/Info : Digital Theater Systems
Codec ID : A_DTS
Duration : 2 h 27 min
Bit rate mode : Constant
Bit rate : 768 kb/s
Channel(s) : 6 channels
Channel positions : Front: L C R, Side: L R, LFE
Sampling rate : 48.0 kHz
Frame rate : 93.750 FPS (512 SPF)
Bit depth : 24 bits
Compression mode : Lossy
Stream size : 809 MiB (1%)
Language : Russian
Default : Yes
Forced : No

Audio #2
ID : 3
Format : DTS
Format/Info : Digital Theater Systems
Format profile : MA / Core
Codec ID : A_DTS
Duration : 2 h 27 min
Bit rate mode : Variable / Constant
Bit rate : 2 246 kb/s / 1 509 kb/s
Channel(s) : 6 channels
Channel positions : Front: L C R, Side: L R, LFE
Sampling rate : 48.0 kHz
Frame rate : 93.750 FPS (512 SPF)
Bit depth : 16 bits
Compression mode : Lossless / Lossy
Stream size : 2.31 GiB (4%)
Language : Russian
Default : No
Forced : No

Audio #3
ID : 4
Format : DTS
Format/Info : Digital Theater Systems
Format profile : MA / Core
Codec ID : A_DTS
Duration : 2 h 27 min
Bit rate mode : Variable / Constant
Bit rate : 2 247 kb/s / 1 509 kb/s
Channel(s) : 6 channels
Channel positions : Front: L C R, Side: L R, LFE
Sampling rate : 48.0 kHz
Frame rate : 93.750 FPS (512 SPF)
Bit depth : 16 bits
Compression mode : Lossless / Lossy
Stream size : 2.31 GiB (4%)
Language : Russian
Default : No
Forced : No

Audio #4
ID : 5
Format : AC-3
Format/Info : Audio Coding 3
Codec ID : A_AC3
Duration : 2 h 27 min
Bit rate mode : Constant
Bit rate : 384 kb/s
Channel(s) : 6 channels
Channel positions : Front: L C R, Side: L R, LFE
Sampling rate : 48.0 kHz
Frame rate : 31.250 FPS (1536 SPF)
Bit depth : 16 bits
Compression mode : Lossy
Stream size : 404 MiB (1%)
Language : Ukrainian
Service kind : Complete Main
Default : No
Forced : No

Audio #5
ID : 6
Format : DTS
Format/Info : Digital Theater Systems
Format profile : HRA / Core
Codec ID : A_DTS
Duration : 2 h 27 min
Bit rate mode : Constant
Bit rate : 2 046 kb/s / 1 509 kb/s
Channel(s) : 6 channels
Channel positions : Front: L C R, Side: L R, LFE
Sampling rate : 48.0 kHz
Frame rate : 93.750 FPS (512 SPF)
Bit depth : 24 bits
Compression mode : Lossy
Stream size : 2.11 GiB (4%)
Language : English
Default : No
Forced : No

Text #1
ID : 7
Format : UTF-8
Codec ID : S_TEXT/UTF8
Codec ID/Info : UTF-8 Plain Text
Duration : 2 h 17 min
Bit rate : 46 b/s
Count of elements : 902
Stream size : 46.4 KiB (0%)
Language : Russian
Default : No
Forced : No

Text #2
ID : 8
Format : UTF-8
Codec ID : S_TEXT/UTF8
Codec ID/Info : UTF-8 Plain Text
Duration : 2 h 16 min
Bit rate : 28 b/s
Count of elements : 929
Stream size : 28.7 KiB (0%)
Language : English
Default : No
Forced : No

Menu
00:00:00.000 : en:Chapter 1
00:06:51.500 : en:Chapter 2
00:11:00.541 : en:Chapter 3
00:14:12.208 : en:Chapter 4
00:17:57.583 : en:Chapter 5
00:22:24.416 : en:Chapter 6
00:27:41.250 : en:Chapter 7
00:33:30.791 : en:Chapter 8
00:39:16.625 : en:Chapter 9
00:45:07.041 : en:Chapter 10
00:49:23.625 : en:Chapter 11
00:55:25.958 : en:Chapter 12
00:59:26.625 : en:Chapter 13
01:03:26.708 : en:Chapter 14
01:08:51.458 : en:Chapter 15
01:13:32.166 : en:Chapter 16
01:18:39.791 : en:Chapter 17
01:23:16.250 : en:Chapter 18
01:26:52.291 : en:Chapter 19
01:33:27.791 : en:Chapter 20
01:39:05.041 : en:Chapter 21
01:42:59.416 : en:Chapter 22
01:47:51.000 : en:Chapter 23
01:52:39.958 : en:Chapter 24
01:56:54.250 : en:Chapter 25
02:00:41.333 : en:Chapter 26
02:05:14.916 : en:Chapter 27
02:09:37.208 : en:Chapter 28
02:14:39.625 : en:Chapter 29
02:17:45.208 : en:Chapter 30




Скачать Парфюмер: история одного убийцы через торрент http://i91.fastpic.ru/big/2017/0214/06/f71d0668c62c3bbe4f6da829a1d56f06.png Скачать, смотреть онлайн Парфюмер: история одного убийцы бесплантно в хорошем качестве Описание: Жестокий, никогда не знавший любви, сирота Жан-Батист Гренуй настоящих успехов достиг лишь на одном поприще - среди парфюмеров ... 10 10 3
Торрент: Зарегистрирован [2018-01-14 10:01] · скачан: 56 раз
Статус: √ проверено
Размер: 57.61 GB
Как cкачать? Как скачать Парфюмер: история одного убийцы через торрент | UTorrent

28-11-2019 20:33  


Отключить вcю реклaмy на сайте, в т.ч. и в плеере онлайн просмотра!

    Дорогой пользователь! Огромная просьба, поблагодарите релизера, оцените раздачу и оставьте свои комментарий, если Вы скачали Парфюмер: история одного убийцы через торрент бесплатно!!
    Комментировать посты могут только пользователи прошедшие не сложную регистрацию
    Показать сообщения:    


    Парфюмер: история одного убийцы через торрент
    Скачать бесплатно Парфюмер: история одного убийцы
    Парфюмер: история одного убийцы скачать торрент
    Парфюмер: история одного убийцы смотреть онлайн
    Cкачать фильм Парфюмер: история одного убийцы бесплатно
    Парфюмер: история одного убийцы скачать торрент в хорошем качестве
    Парфюмер: история одного убийцы смотреть онлайн бесплатно в хорошем качестве
    Вы не можете начинать темы
    Вы не можете отвечать на сообщения
    Вы не можете редактировать свои сообщения
    Вы не можете удалять свои сообщения
    Вы не можете голосовать в опросах
    Вы не можете прикреплять файлы к сообщениям
    Вы можете скачивать файлы
    Парфюмер: история одного убийцы / Perfume: The Story of a Murderer [2006, Триллер, драма, криминал, UHD BDRemux 2160p] Дубляж +2xAVO смотреть онлайн, скачать торрент picoco.icu