Достать ножи: Стеклянная луковица

MVO

Добыча

Дубляж

Уэнсдэй

1 сезон

Тор

Дубляж

13 клиническая

1 сезон

Жестокая ночь

MVO

Одни из нас

1 сезон

Deluxe

pack

Рекомендуем

30

Пиратка

ВАЖНО

ВАЖНО

Ghostwire

Пиратка

jed

RePack

nioh2

RePack

RDR2

RePack

NEED FOR SPEED™ PAYBACK

RePack

скачать торрент

Кинопоиск HD

Острые козырьки 6 сезон

6 сезон

FAR CRY 6

RePack

скачать торрент

Лицензия

скачать торрент

MVO

1

1 сезон

скачать торрент

1 сезон

скачать торрент

Лицензия

  

Интерстеллар / Interstellar (Кристофер Нолан) [2014, Фантастика, драма, приключения, UHD BDRemux 2160p] Дубляж + MVO + 3xAVO [IMAX]

Интерстеллар через торрент 5050.piratbit.fun

Размер: 84.81 GB | Добавлен: 5 лет назад | Торрент скачан:213 раз
Смотреть онлайн | Скачать | Поддержите нас   

18-01-2018 12:21 Интерстеллар Скачать торрент  

Интерстеллар / Interstellar«Следующий шаг человечества станет величайшим»
Год выпуска: 2014
Страна: США, Великобритания, Канада
Жанр: Фантастика, драма, приключения
Продолжительность: 02:49:04
Перевод: Дублированный, профессиональный многоголосый, авторский
Субтитры: Pусские (forced,voronine, BD, iTunes, unknown), украинские (forced), английские (full, SDH, SDH-COLORED)
Режиссер: Кристофер Нолан
В ролях:

Мэттью МакКонахи (Cooper), Энн Хэтэуэй (Brand), Джессика Честейн (Murph), Маккензи Фой (Murph (10 Yrs.)), Майкл Кейн (Professor Brand), Дэвид Гяси (Romilly), Уэс Бентли (Doyle), Кейси Аффлек (Tom), Джон Литгоу (Donald), Мэтт Дэймон (Mann), Тофер Грейс (Getty), Эллен Бёрстин (Murph (Older))
Описание:
Когда засуха приводит человечество к продовольственному кризису, коллектив исследователей и учёных отправляется сквозь червоточину (которая предположительно соединяет области пространства-времени через большое расстояние) в путешествие, чтобы превзойти прежние ограничения для космических путешествий человека и переселить человечество на другую планету.
Рейтинг:

Качество: UHD BDRemux 2160p
Формат: MKV
Видео: HEVC, 51670 Кбит/с, 3840x2160, 23.976 Кадр/с
Аудио 1: Russian: 48 kHz, AC3, 3/2 (L,C,R,l,r) + LFE ch, 640.00 kbps avg |Blu-ray 4K|
Аудио 2: Ukrainian:48 kHz, AC3, 3/2 (L,C,R,l,r) + LFE ch, 640.00 kbps avg |Blu-ray CEE|
Аудио 3: Русский / DTS-HD Master Audio / 5.1 / 48 kHz / 3730 kbps / 24-bit (DTS Core: 5.1 / 48 kHz / 1509 kbps / 24-bit) |Омикрон|
Аудио 4: Русский / DTS-HD Master Audio / 5.1 / 48 kHz / 3493 kbps / 24-bit (DTS Core: 5.1 / 48 kHz / 1509 kbps / 24-bit) |Сербин|
Аудио 5: Русский / DTS-HD Master Audio / 5.1 / 48 kHz / 3623 kbps / 24-bit (DTS Core: 5.1 / 48 kHz / 1509 kbps / 24-bit) |Живов|
Аудио 6: Русский / DTS-HD Master Audio / 5.1 / 48 kHz / 3733 kbps / 24-bit (DTS Core: 5.1 / 48 kHz / 1509 kbps / 24-bit) |Есарев|
Аудио 7: English / DTS-HD Master Audio / 5.1 / 48 kHz / 3693 kbps / 24-bit (DTS Core: 5.1 / 48 kHz / 1509 kbps / 24-bit) |Original|
Аудио 8: English / 48 kHz, AC3, 3/2 (L,C,R,l,r) + LFE ch, 640.00 kbps avg
Навигация по главам: есть
Общее
Уникальный идентификатор : 77546115634814009596010958031529452467 (0x3A56D6AF9DE95E7609FE7A474F3023B3)
Полное имя : L:\Interstellar.2014.2160p.BluRay.HEVC.HDR.DTS-HD.MA.5.1.IVA(5xRUS.UKR.ENG).mkv
Формат : Matroska
Версия формата : Version 4 / Version 2
Размер файла : 84,8 Гбайт
Продолжительность : 2 ч. 49 м.
Общий поток : 71,8 Мбит/сек
Название фильма : Interstellar.2014.2160p.BluRay.HEVC.HDR.DTS-HD.MA.5.1
Дата кодирования : UTC 2018-01-17 12:45:10
Программа кодирования : mkvmerge v19.0.0 ('Brave Captain') 64-bit
Библиотека кодирования : libebml v1.3.5 + libmatroska v1.4.8
Обложка : Yes
Attachments : cover.jpg

Видео
Идентификатор : 1
Формат : HEVC
Формат/Информация : High Efficiency Video Coding
Профиль формата : Main [email protected]@High
Идентификатор кодека : V_MPEGH/ISO/HEVC
Продолжительность : 2 ч. 49 м.
Битрейт : 51,6 Мбит/сек
Ширина : 3840 пикселей
Высота : 2160 пикселей
Соотношение сторон : 16:9
Режим частоты кадров : Постоянный
Частота кадров : 23,952 кадра/сек
Частота кадров в оригинале : 23,976 (24000/1001) кадра/сек
Цветовое пространство : YUV
Субдискретизация насыщенности : 4:2:0 (Type 2)
Битовая глубина : 10 бит
Бит/(Пиксели*Кадры) : 0.260
Размер потока : 61,0 Гбайт (72%)
Заголовок : Interstellar.2014.2160p.BluRay.HEVC.HDR
Библиотека кодирования : ATEME Titan File 3.8.3 (4.8.3.0)
Default : Да
Forced : Нет
Цветовой диапазон : Limited
Основные цвета : BT.2020
Характеристики трансфера : PQ
Коэффициенты матрицы : BT.2020 non-constant
MasteringDisplay_ColorPrimaries : Display P3
MasteringDisplay_Luminance : min: 0.0050 cd/m2, max: 4000 cd/m2
MaxCLL : 1242 cd/m2
MaxFALL : 436 cd/m2

Аудио #1
Идентификатор : 2
Формат : AC-3
Формат/Информация : Audio Coding 3
Идентификатор кодека : A_AC3
Продолжительность : 2 ч. 49 м.
Вид битрейта : Постоянный
Битрейт : 640 Кбит/сек
Каналы : 6 каналов
Расположение каналов : Front: L C R, Side: L R, LFE
Частота : 48,0 КГц
Частота кадров : 31,250 кадров/сек (1536 SPF)
Битовая глубина : 16 бит
Метод сжатия : С потерями
Размер потока : 773 Мбайт (1%)
Заголовок : Дубляж-Blu-ray 4K
Язык : Russian
ServiceKind/String : Complete Main
Default : Да
Forced : Нет

Аудио #2
Идентификатор : 3
Формат : AC-3
Формат/Информация : Audio Coding 3
Идентификатор кодека : A_AC3
Продолжительность : 2 ч. 49 м.
Вид битрейта : Постоянный
Битрейт : 640 Кбит/сек
Каналы : 6 каналов
Расположение каналов : Front: L C R, Side: L R, LFE
Частота : 48,0 КГц
Частота кадров : 31,250 кадров/сек (1536 SPF)
Битовая глубина : 16 бит
Метод сжатия : С потерями
Размер потока : 774 Мбайт (1%)
Заголовок : Дубляж-Blu-ray CEE
Язык : Ukrainian
ServiceKind/String : Complete Main
Default : Нет
Forced : Нет

Аудио #3
Идентификатор : 4
Формат : DTS
Формат/Информация : Digital Theater Systems
Профиль формата : MA / Core
Идентификатор кодека : A_DTS
Продолжительность : 2 ч. 49 м.
Вид битрейта : Переменный / Постоянный
Битрейт : 3730 Кбит/сек / 1509 Кбит/сек
Каналы : 6 каналов
Расположение каналов : Front: L C R, Side: L R, LFE
Частота : 48,0 КГц
Частота кадров : 93,750 кадра/сек (512 SPF)
Битовая глубина : 24 бит
Метод сжатия : Без потерь / Lossy
Размер потока : 4,40 Гбайт (5%)
Заголовок : MVO-Омикрон
Язык : Russian
Default : Нет
Forced : Нет

Аудио #4
Идентификатор : 5
Формат : DTS
Формат/Информация : Digital Theater Systems
Профиль формата : MA / Core
Идентификатор кодека : A_DTS
Продолжительность : 2 ч. 49 м.
Вид битрейта : Переменный / Постоянный
Битрейт : 3493 Кбит/сек / 1509 Кбит/сек
Каналы : 6 каналов
Расположение каналов : Front: L C R, Side: L R, LFE
Частота : 48,0 КГц
Частота кадров : 93,750 кадра/сек (512 SPF)
Битовая глубина : 24 бит
Метод сжатия : Без потерь / Lossy
Размер потока : 4,13 Гбайт (5%)
Заголовок : AVO-Сербин
Язык : Russian
Default : Нет
Forced : Нет

Аудио #5
Идентификатор : 6
Формат : DTS
Формат/Информация : Digital Theater Systems
Профиль формата : MA / Core
Идентификатор кодека : A_DTS
Продолжительность : 2 ч. 49 м.
Вид битрейта : Переменный / Постоянный
Битрейт : 3623 Кбит/сек / 1509 Кбит/сек
Каналы : 6 каналов
Расположение каналов : Front: L C R, Side: L R, LFE
Частота : 48,0 КГц
Частота кадров : 93,750 кадра/сек (512 SPF)
Битовая глубина : 24 бит
Метод сжатия : Без потерь / Lossy
Размер потока : 4,28 Гбайт (5%)
Заголовок : AVO-Живов
Язык : Russian
Default : Нет
Forced : Нет

Аудио #6
Идентификатор : 7
Формат : DTS
Формат/Информация : Digital Theater Systems
Профиль формата : MA / Core
Идентификатор кодека : A_DTS
Продолжительность : 2 ч. 49 м.
Вид битрейта : Переменный / Постоянный
Битрейт : 3733 Кбит/сек / 1509 Кбит/сек
Каналы : 6 каналов
Расположение каналов : Front: L C R, Side: L R, LFE
Частота : 48,0 КГц
Частота кадров : 93,750 кадра/сек (512 SPF)
Битовая глубина : 24 бит
Метод сжатия : Без потерь / Lossy
Размер потока : 4,41 Гбайт (5%)
Заголовок : VO-Есарев
Язык : Russian
Default : Нет
Forced : Нет

Аудио #7
Идентификатор : 8
Формат : DTS
Формат/Информация : Digital Theater Systems
Профиль формата : MA / Core
Идентификатор кодека : A_DTS
Продолжительность : 2 ч. 49 м.
Вид битрейта : Переменный / Постоянный
Битрейт : 3683 Кбит/сек / 1509 Кбит/сек
Каналы : 6 каналов
Расположение каналов : Front: L C R, Side: L R, LFE
Частота : 48,0 КГц
Частота кадров : 93,750 кадра/сек (512 SPF)
Битовая глубина : 24 бит
Метод сжатия : Без потерь / Lossy
Размер потока : 4,35 Гбайт (5%)
Заголовок : Original
Язык : English
Default : Нет
Forced : Нет

Аудио #8
Идентификатор : 9
Формат : AC-3
Формат/Информация : Audio Coding 3
Идентификатор кодека : A_AC3
Продолжительность : 2 ч. 49 м.
Вид битрейта : Постоянный
Битрейт : 640 Кбит/сек
Каналы : 6 каналов
Расположение каналов : Front: L C R, Side: L R, LFE
Частота : 48,0 КГц
Частота кадров : 31,250 кадров/сек (1536 SPF)
Битовая глубина : 16 бит
Метод сжатия : С потерями
Размер потока : 773 Мбайт (1%)
Заголовок : Original + Audiodescription
Язык : English
ServiceKind/String : Complete Main
Default : Нет
Forced : Нет

Текст #1
Идентификатор : 10
Формат : UTF-8
Идентификатор кодека : S_TEXT/UTF8
Идентификатор кодека/Информация : UTF-8 Plain Text
Продолжительность : 2 ч. 17 м.
Битрейт : 0 бит/сек
ElementCount : 7
Размер потока : 383 байт (0%)
Заголовок : Sub-forced
Язык : Russian
Default : Да
Forced : Да

Текст #2
Идентификатор : 11
Формат : UTF-8
Идентификатор кодека : S_TEXT/UTF8
Идентификатор кодека/Информация : UTF-8 Plain Text
Продолжительность : 2 ч. 42 м.
Битрейт : 95 бит/сек
ElementCount : 2151
Размер потока : 114 Кбайт (0%)
Заголовок : Sub-full-BD
Язык : Russian
Default : Нет
Forced : Нет

Текст #3
Идентификатор : 12
Формат : UTF-8
Идентификатор кодека : S_TEXT/UTF8
Идентификатор кодека/Информация : UTF-8 Plain Text
Продолжительность : 2 ч. 43 м.
Битрейт : 101 бит/сек
ElementCount : 2017
Размер потока : 122 Кбайт (0%)
Заголовок : Sub-full-Voronine
Язык : Russian
Default : Нет
Forced : Нет

Текст #4
Идентификатор : 13
Формат : UTF-8
Идентификатор кодека : S_TEXT/UTF8
Идентификатор кодека/Информация : UTF-8 Plain Text
Продолжительность : 2 ч. 47 м.
Битрейт : 91 бит/сек
ElementCount : 2051
Размер потока : 113 Кбайт (0%)
Заголовок : Sub-full-iTunes
Язык : Russian
Default : Нет
Forced : Нет

Текст #5
Идентификатор : 14
Формат : UTF-8
Идентификатор кодека : S_TEXT/UTF8
Идентификатор кодека/Информация : UTF-8 Plain Text
Продолжительность : 2 ч. 42 м.
Битрейт : 93 бит/сек
ElementCount : 2015
Размер потока : 112 Кбайт (0%)
Заголовок : Sub-full-unknown
Язык : Russian
Default : Нет
Forced : Нет

Текст #6
Идентификатор : 15
Формат : UTF-8
Идентификатор кодека : S_TEXT/UTF8
Идентификатор кодека/Информация : UTF-8 Plain Text
Продолжительность : 2 ч. 17 м.
Битрейт : 0 бит/сек
ElementCount : 7
Размер потока : 379 байт (0%)
Заголовок : Sub-forced
Язык : Ukrainian
Default : Нет
Forced : Да

Текст #7
Идентификатор : 16
Формат : UTF-8
Идентификатор кодека : S_TEXT/UTF8
Идентификатор кодека/Информация : UTF-8 Plain Text
Продолжительность : 2 ч. 42 м.
Битрейт : 56 бит/сек
ElementCount : 2001
Размер потока : 66,9 Кбайт (0%)
Заголовок : Sub-full
Язык : English
Default : Нет
Forced : Нет

Текст #8
Идентификатор : 17
Формат : UTF-8
Идентификатор кодека : S_TEXT/UTF8
Идентификатор кодека/Информация : UTF-8 Plain Text
Продолжительность : 2 ч. 42 м.
Битрейт : 59 бит/сек
ElementCount : 1996
Размер потока : 70,6 Кбайт (0%)
Заголовок : Sub-SDH
Язык : English
Default : Нет
Forced : Нет

Текст #9
Идентификатор : 18
Формат : UTF-8
Идентификатор кодека : S_TEXT/UTF8
Идентификатор кодека/Информация : UTF-8 Plain Text
Продолжительность : 2 ч. 42 м.
Битрейт : 67 бит/сек
ElementCount : 2097
Размер потока : 80,6 Кбайт (0%)
Заголовок : Sub-SDH-COLORED
Язык : English
Default : Нет
Forced : Нет

Меню
00:00:00.000 : en:Chapter 1
00:09:35.491 : en:Chapter 2
00:17:12.322 : en:Chapter 3
00:25:00.749 : en:Chapter 4
00:35:45.393 : en:Chapter 5
00:42:16.867 : en:Chapter 6
00:50:19.891 : en:Chapter 7
00:54:48.076 : en:Chapter 8
00:58:59.702 : en:Chapter 9
01:06:15.012 : en:Chapter 10
01:17:28.185 : en:Chapter 11
01:25:32.001 : en:Chapter 12
01:34:31.999 : en:Chapter 13
01:46:14.701 : en:Chapter 14
01:55:34.552 : en:Chapter 15
02:02:14.368 : en:Chapter 16
02:12:56.843 : en:Chapter 17
02:20:53.820 : en:Chapter 18
02:35:12.094 : en:Chapter 19
02:43:59.830 : en:Chapter 20



Скачать Интерстеллар через торрент http://i99.fastpic.ru/big/2018/0118/63/36a72a2a8f177c6c7a72be8fca46e563.png Скачать, смотреть онлайн Интерстеллар бесплантно в хорошем качестве Описание: Когда засуха приводит человечество к продовольственному кризису, коллектив исследователей и учёных отправляется сквозь ... 10 10 11
Торрент: Зарегистрирован [2018-01-18 12:21] · скачан: 213 раз
Статус: √ проверено
Размер: 84.81 GB
Как cкачать? Как скачать Интерстеллар через торрент | UTorrent

% Раздел Тема Автор DL S | L
Ultra HD (UHD: 2K, 4K, 8K) [ 56.48 GB ] Интерстеллар / Interstellar | DUB | 2160p sheker187 Скачать
2 | 0
Ultra HD (UHD: 2K, 4K, 8K) [ 84.1 GB ] Интерстеллар / Interstellar | Лицензия EUR | 2160p bober100 Скачать
1 | 0
Фильмы [HD 720p, 1080p] (Хороший звук DUB, MVO) [ 11.55 GB ] Интерстеллар / Interstellar | | 1080p, [IMAX Edition Ворон Скачать
1 | 0
Фильмы (BDRip, HDrip-AVC) (48-60 fps) [ 3.98 GB ] Интерстеллар / Interstellar | Дубляж | BDRip-AVC 60fps, IMAX , Дубляж Tiberiumsun69 Скачать
3 | 0
Фильмы [HD 720p, 1080p] (Хороший звук DUB, MVO) [ 7.75 GB ] Интерстеллар / Interstellar | Дубляж | 1080p, HEVC (10 bit Мичман37 Скачать
1 | 0
Фильмы 2014 [DVDrip, WEB-DLRip, HDrip] [ 2.1 GB ] Интерстеллар / Interstellar | iTunes | HDRip-AVC Дубляж (iTunes White Smoke Скачать
1 | 3
Фильмы (HD 720p, 1080p) (48-60 fps) [ 28.63 GB ] Интерстеллар / Interstellar | MVO | 1080p, 60fps, IMAX, MVO, AVO, VO, Original Tiberiumsun69 Скачать
1 | 0

28-11-2019 20:33  


Отключить вcю реклaмy на сайте, в т.ч. и в плеере онлайн просмотра!

17-01-2019 06:53 Интерстеллар Скачать торрент  

А стоит оно того,такого размера?Сколько не скачивал фильмы в "типа 4к UHD",особой разницы с FHD BD Rmx вообще не увидел.И не услышал.Вот промо-ролики в 4к,которыми нас,лохов,охмуряют в магазинах-там даааа,всё блещет и горит.А фильмы-так,ничего особого.Вывод:всё это "ультраHD"-очередное разводилово на покупку дорогущего телеящика.Как несколько лет назад заманивали 3D,а теперь днём с огнём не найти в продаже.Потому что на х...никому не нужно оказалось.4К ждёт тоже самое,походу...



04-01-2021 15:28 Интерстеллар Скачать торрент  

Stopper68, Спешу из будущего 2021 года, разница есть.
Хотя если ты смотришь на своем Full HD 32 дюйма, то да лучшего ждать не приходится.
P.S. Зашел на раздачу дабы скачать фильм чтоб проверить новую акустику, звук в нем крут.



29-01-2021 19:25 Интерстеллар Скачать торрент  

Встаньте на раздачу кто скачал, уже неделю качаю...



    Дорогой пользователь! Огромная просьба, поблагодарите релизера, оцените раздачу и оставьте свои комментарий, если Вы скачали Интерстеллар через торрент бесплатно!!
    Комментировать посты могут только пользователи прошедшие не сложную регистрацию
    Показать сообщения:    


    Интерстеллар через торрент
    Скачать бесплатно Интерстеллар
    Интерстеллар скачать торрент
    Интерстеллар смотреть онлайн
    Cкачать фильм Интерстеллар бесплатно
    Интерстеллар скачать торрент в хорошем качестве
    Интерстеллар смотреть онлайн бесплатно в хорошем качестве
    Вы не можете начинать темы
    Вы не можете отвечать на сообщения
    Вы не можете редактировать свои сообщения
    Вы не можете удалять свои сообщения
    Вы не можете голосовать в опросах
    Вы не можете прикреплять файлы к сообщениям
    Вы можете скачивать файлы
    Интерстеллар / Interstellar [2014, Фантастика, драма, приключения, UHD BDRemux 2160p] Дубляж + MVO + 3xAVO [IMAX] смотреть онлайн, скачать торрент picoco.icu