Достать ножи: Стеклянная луковица

MVO

Добыча

Дубляж

Уэнсдэй

1 сезон

Тор

Дубляж

13 клиническая

1 сезон

Жестокая ночь

MVO

Одни из нас

1 сезон

Deluxe

pack

Рекомендуем

30

Пиратка

ВАЖНО

ВАЖНО

Ghostwire

Пиратка

jed

RePack

nioh2

RePack

RDR2

RePack

NEED FOR SPEED™ PAYBACK

RePack

скачать торрент

Кинопоиск HD

Острые козырьки 6 сезон

6 сезон

FAR CRY 6

RePack

скачать торрент

Лицензия

скачать торрент

MVO

1

1 сезон

скачать торрент

1 сезон

скачать торрент

Лицензия

  

Темный рыцарь / The Dark Knight (Кристофер Нолан) [2008, фантастика, боевик, триллер, UHD BDRemux 2160p] Дубляж [rus, ukr] + MVO + 3xAVO + 2xVO

Темный рыцарь через торрент 5050.piratbit.fun

Размер: 66.73 GB | Добавлен: 5 лет назад | Торрент скачан:187 раз
Смотреть онлайн | Скачать | Поддержите нас   

18-01-2018 16:39 Темный рыцарь Скачать торрент  

Темный рыцарь / The Dark Knight«Добро пожаловать в мир Хаоса!»
Год выпуска: 2008
Страна: США, Великобритания
Жанр: фантастика, боевик, триллер, криминал, драма
Продолжительность: 02:32:12
Перевод: Дублированный, профессиональный многоголосый, авторский, любительский одноголосый
Субтитры: Русские (BD CEE, Goblin, Voronine), английские (Full, SDH), украинские (Full)
Режиссер: Кристофер Нолан
В ролях:

Кристиан Бэйл (Bruce Wayne), Хит Леджер (Joker), Аарон Экхарт (Harvey Dent), Мэгги Джилленхол (Rachel), Гари Олдман (Gordon), Майкл Кейн (Alfred), Морган Фриман (Lucius Fox), Чин Хань (Lau), Нестор Карбонелл (Mayor), Эрик Робертс (Maroni), Ричи Костер (Chechen), Моник Кёрнен (Ramirez)
Описание:
Бэтмен поднимает ставки в войне с криминалом. С помощью лейтенанта Джима Гордона и прокурора Харви Дента он намерен очистить улицы от преступности, отравляющей город. Сотрудничество оказывается эффективным, но скоро они обнаружат себя посреди хаоса, развязанного восходящим криминальным гением, известным испуганным горожанам под именем Джокер.
Рейтинг:

MPAA: PG-13 - Детям до 13 лет просмотр не желателен
Качество: UHD BDRemux 2160p
Формат: MKV
Видео: HEVC, 47159 Кбит/с, 3840x2160, 23.976 Кадр/с
Аудио 1: Русский (AC3, 6 ch, 640 Кбит/с) - дублированный (с BD 4K)
Аудио 2: Украинский (AC3, 6 ch, 448 Кбит/с) - дублированный (с BD CEE)
Аудио 3: Русский (AC3, 6 ch, 448 Кбит/с) - профессиональный многоголосый (Kravec)
Аудио 4: Русский (DTS-HD MA, 6 ch, 2211 Кбит/с) - авторский одноголосый (Живов)
Аудио 5: Русский (DTS-HD MA, 6 ch, 2212 Кбит/с) - авторский одноголосый (Сербин)
Аудио 6: Русский (DTS-HD MA, 6 ch, 2225 Кбит/с) - авторский одноголосый (Гаврилов)
Аудио 7: Русский (DTS, 6 ch, 1510 Кбит/с) - любительский одноголосый (REN_313)
Аудио 8: Русский (AC3, 6 ch, 384 Кбит/с) - любительский одноголосый (Чадов)
Аудио 9: Английский (DTS-HD MA, 6 ch, 4037 Кбит/с) - оригинальная звуковая дорожка (с BD 4K)
Аудио 10: Английский (DTS, 6 ch, 1510 Кбит/с) - оригинальная звуковая дорожка
Аудио 11: Английский (Vorbis, 2ch, 80 Кбит/с) - Audiodescription
Навигация по главам: есть
Видео
Идентификатор : 1
Формат : HEVC
Формат/Информация : High Efficiency Video Coding
Профиль формата : Main [email protected]@High
Идентификатор кодека : V_MPEGH/ISO/HEVC
Продолжительность : 2 ч. 32 м.
Битрейт : 47,2 Мбит/сек
Ширина : 3840 пикселей
Высота : 2160 пикселей
Соотношение сторон : 16:9
Режим частоты кадров : Постоянный
Частота кадров : 23,976 (24000/1001) кадра/сек
Цветовое пространство : YUV
Субдискретизация насыщенности : 4:2:0 (Type 2)
Битовая глубина : 10 бит
Бит/(Пиксели*Кадры) : 0.237
Размер потока : 50,1 Гбайт (75%)
Заголовок : The.Dark.Knight.2008.2160p.BluRay.Remux.HEVC.HDR
Default : Да
Forced : Нет
Цветовой диапазон : Limited
Основные цвета : BT.2020
Характеристики трансфера : PQ
Коэффициенты матрицы : BT.2020 non-constant
MasteringDisplay_ColorPrimaries : Display P3
MasteringDisplay_Luminance : min: 0.0050 cd/m2, max: 4000 cd/m2
MaxCLL : 500 cd/m2
MaxFALL : 200 cd/m2

Аудио #1
Идентификатор : 2
Формат : AC-3
Формат/Информация : Audio Coding 3
Идентификатор кодека : A_AC3
Продолжительность : 2 ч. 32 м.
Вид битрейта : Постоянный
Битрейт : 640 Кбит/сек
Каналы : 6 каналов
Расположение каналов : Front: L C R, Side: L R, LFE
Частота : 48,0 КГц
Частота кадров : 31,250 кадров/сек (1536 SPF)
Битовая глубина : 16 бит
Метод сжатия : С потерями
Размер потока : 697 Мбайт (1%)
Заголовок : Дублированный BluRay 4K
Язык : Russian
ServiceKind/String : Complete Main
Default : Да
Forced : Нет

Аудио #2
Идентификатор : 3
Формат : AC-3
Формат/Информация : Audio Coding 3
Идентификатор кодека : A_AC3
Продолжительность : 2 ч. 32 м.
Вид битрейта : Постоянный
Битрейт : 448 Кбит/сек
Каналы : 6 каналов
Расположение каналов : Front: L C R, Side: L R, LFE
Частота : 48,0 КГц
Частота кадров : 31,250 кадров/сек (1536 SPF)
Битовая глубина : 16 бит
Метод сжатия : С потерями
Задержка видео : 16 мс.
Размер потока : 488 Мбайт (1%)
Заголовок : Дублированный BluRay CEE
Язык : Ukrainian
ServiceKind/String : Complete Main
Default : Нет
Forced : Нет

Аудио #3
Идентификатор : 4
Формат : AC-3
Формат/Информация : Audio Coding 3
Идентификатор кодека : A_AC3
Продолжительность : 2 ч. 32 м.
Вид битрейта : Постоянный
Битрейт : 448 Кбит/сек
Каналы : 6 каналов
Расположение каналов : Front: L C R, Side: L R, LFE
Частота : 48,0 КГц
Частота кадров : 31,250 кадров/сек (1536 SPF)
Битовая глубина : 16 бит
Метод сжатия : С потерями
Размер потока : 488 Мбайт (1%)
Заголовок : Многоголосый Кравец
Язык : Russian
ServiceKind/String : Complete Main
Default : Нет
Forced : Нет

Аудио #4
Идентификатор : 5
Формат : DTS
Формат/Информация : Digital Theater Systems
Профиль формата : MA / Core
Идентификатор кодека : A_DTS
Продолжительность : 2 ч. 32 м.
Вид битрейта : Переменный / Постоянный
Битрейт : 2225 Кбит/сек / 1509 Кбит/сек
Каналы : 6 каналов
Расположение каналов : Front: L C R, Side: L R, LFE
Частота : 48,0 КГц
Частота кадров : 93,750 кадра/сек (512 SPF)
Битовая глубина : 16 бит
Метод сжатия : Без потерь / Lossy
Размер потока : 2,37 Гбайт (4%)
Заголовок : Юрий Живов
Язык : Russian
Default : Нет
Forced : Нет

Аудио #5
Идентификатор : 6
Формат : DTS
Формат/Информация : Digital Theater Systems
Профиль формата : MA / Core
Идентификатор кодека : A_DTS
Продолжительность : 2 ч. 32 м.
Вид битрейта : Переменный / Постоянный
Битрейт : 2211 Кбит/сек / 1509 Кбит/сек
Каналы : 6 каналов
Расположение каналов : Front: L C R, Side: L R, LFE
Частота : 48,0 КГц
Частота кадров : 93,750 кадра/сек (512 SPF)
Битовая глубина : 16 бит
Метод сжатия : Без потерь / Lossy
Размер потока : 2,35 Гбайт (4%)
Заголовок : Юрий Сербин
Язык : Russian
Default : Нет
Forced : Нет

Аудио #6
Идентификатор : 7
Формат : DTS
Формат/Информация : Digital Theater Systems
Профиль формата : MA / Core
Идентификатор кодека : A_DTS
Продолжительность : 2 ч. 32 м.
Вид битрейта : Переменный / Постоянный
Битрейт : 2212 Кбит/сек / 1509 Кбит/сек
Каналы : 6 каналов
Расположение каналов : Front: L C R, Side: L R, LFE
Частота : 48,0 КГц
Частота кадров : 93,750 кадра/сек (512 SPF)
Битовая глубина : 16 бит
Метод сжатия : Без потерь / Lossy
Размер потока : 2,35 Гбайт (4%)
Заголовок : Гаврилов
Язык : Russian
Default : Нет
Forced : Нет

Аудио #7
Идентификатор : 8
Формат : DTS
Формат/Информация : Digital Theater Systems
Идентификатор кодека : A_DTS
Продолжительность : 2 ч. 32 м.
Вид битрейта : Постоянный
Битрейт : 1510 Кбит/сек
Каналы : 6 каналов
Расположение каналов : Front: L C R, Side: L R, LFE
Частота : 48,0 КГц
Частота кадров : 93,750 кадра/сек (512 SPF)
Битовая глубина : 24 бит
Метод сжатия : С потерями
Размер потока : 1,61 Гбайт (2%)
Заголовок : VO REN_313
Язык : Russian
Default : Нет
Forced : Нет

Аудио #8
Идентификатор : 9
Формат : AC-3
Формат/Информация : Audio Coding 3
Идентификатор кодека : A_AC3
Продолжительность : 2 ч. 32 м.
Вид битрейта : Постоянный
Битрейт : 384 Кбит/сек
Каналы : 6 каналов
Расположение каналов : Front: L C R, Side: L R, LFE
Частота : 48,0 КГц
Частота кадров : 31,250 кадров/сек (1536 SPF)
Битовая глубина : 16 бит
Метод сжатия : С потерями
Размер потока : 418 Мбайт (1%)
Заголовок : Чадов
Язык : Russian
ServiceKind/String : Complete Main
Default : Нет
Forced : Нет

Аудио #9
Идентификатор : 10
Формат : DTS
Формат/Информация : Digital Theater Systems
Профиль формата : MA / Core
Идентификатор кодека : A_DTS
Продолжительность : 2 ч. 32 м.
Вид битрейта : Переменный / Постоянный
Битрейт : 3840 Кбит/сек / 1509 Кбит/сек
Каналы : 6 каналов
Расположение каналов : Front: L C R, Side: L R, LFE
Частота : 48,0 КГц
Частота кадров : 93,750 кадра/сек (512 SPF)
Битовая глубина : 24 бит
Метод сжатия : Без потерь / Lossy
Размер потока : 4,06 Гбайт (6%)
Заголовок : Original
Язык : English
Default : Нет
Forced : Нет

Аудио #10
Идентификатор : 11
Формат : DTS
Формат/Информация : Digital Theater Systems
Идентификатор кодека : A_DTS
Продолжительность : 2 ч. 32 м.
Вид битрейта : Постоянный
Битрейт : 1510 Кбит/сек
Каналы : 6 каналов
Расположение каналов : Front: L C R, Side: L R, LFE
Частота : 48,0 КГц
Частота кадров : 93,750 кадра/сек (512 SPF)
Битовая глубина : 24 бит
Метод сжатия : С потерями
Размер потока : 1,61 Гбайт (2%)
Заголовок : English
Язык : English
Default : Нет
Forced : Нет

Аудио #11
Идентификатор : 12
Формат : AC-3
Формат/Информация : Audio Coding 3
Идентификатор кодека : A_AC3
Продолжительность : 2 ч. 32 м.
Вид битрейта : Постоянный
Битрейт : 192 Кбит/сек
Каналы : 2 канала
Расположение каналов : Front: L R
Частота : 48,0 КГц
Частота кадров : 31,250 кадров/сек (1536 SPF)
Битовая глубина : 16 бит
Метод сжатия : С потерями
Размер потока : 209 Мбайт (0%)
Заголовок : English + Audiodescription
Язык : English
ServiceKind/String : Complete Main
Default : Нет
Forced : Нет

Текст #1
Идентификатор : 13
Формат : UTF-8
Идентификатор кодека : S_TEXT/UTF8
Идентификатор кодека/Информация : UTF-8 Plain Text
Продолжительность : 2 ч. 30 м.
Битрейт : 97 бит/сек
ElementCount : 1867
Размер потока : 107 Кбайт (0%)
Заголовок : BD CEE
Язык : Russian
Default : Нет
Forced : Нет

Текст #2
Идентификатор : 14
Формат : UTF-8
Идентификатор кодека : S_TEXT/UTF8
Идентификатор кодека/Информация : UTF-8 Plain Text
Продолжительность : 2 ч. 22 м.
Битрейт : 105 бит/сек
ElementCount : 1793
Размер потока : 110 Кбайт (0%)
Заголовок : Goblin
Язык : Russian
Default : Нет
Forced : Нет

Текст #3
Идентификатор : 15
Формат : UTF-8
Идентификатор кодека : S_TEXT/UTF8
Идентификатор кодека/Информация : UTF-8 Plain Text
Продолжительность : 2 ч. 24 м.
Битрейт : 110 бит/сек
ElementCount : 1898
Размер потока : 117 Кбайт (0%)
Заголовок : Voronine
Язык : Russian
Default : Нет
Forced : Нет

Текст #4
Идентификатор : 16
Формат : UTF-8
Идентификатор кодека : S_TEXT/UTF8
Идентификатор кодека/Информация : UTF-8 Plain Text
Продолжительность : 2 ч. 30 м.
Битрейт : 89 бит/сек
ElementCount : 1890
Размер потока : 98,9 Кбайт (0%)
Заголовок : Full
Язык : Ukrainian
Default : Нет
Forced : Нет

Текст #5
Идентификатор : 17
Формат : UTF-8
Идентификатор кодека : S_TEXT/UTF8
Идентификатор кодека/Информация : UTF-8 Plain Text
Продолжительность : 2 ч. 22 м.
Битрейт : 64 бит/сек
ElementCount : 1884
Размер потока : 67,4 Кбайт (0%)
Заголовок : Full
Язык : English
Default : Нет
Forced : Нет

Текст #6
Идентификатор : 18
Формат : UTF-8
Идентификатор кодека : S_TEXT/UTF8
Идентификатор кодека/Информация : UTF-8 Plain Text
Продолжительность : 2 ч. 22 м.
Битрейт : 70 бит/сек
ElementCount : 2007
Размер потока : 73,7 Кбайт (0%)
Заголовок : SDH
Язык : English
Default : Нет
Forced : Нет

Меню
00:00:00.000 : en:Chapter 1
00:06:25.927 : en:Chapter 2
00:10:36.135 : en:Chapter 3
00:13:52.540 : en:Chapter 4
00:17:54.156 : en:Chapter 5
00:21:39.298 : en:Chapter 6
00:26:09.985 : en:Chapter 7
00:29:36.232 : en:Chapter 8
00:31:42.442 : en:Chapter 9
00:37:49.016 : en:Chapter 10
00:43:34.028 : en:Chapter 11
00:46:39.505 : en:Chapter 12
00:48:57.726 : en:Chapter 13
00:53:19.404 : en:Chapter 14
00:57:15.598 : en:Chapter 15
00:59:26.312 : en:Chapter 16
01:03:59.544 : en:Chapter 17
01:08:23.516 : en:Chapter 18
01:10:48.285 : en:Chapter 19
01:14:24.877 : en:Chapter 20
01:18:05.597 : en:Chapter 21
01:22:22.395 : en:Chapter 22
01:24:48.541 : en:Chapter 23
01:30:48.401 : en:Chapter 24
01:34:04.930 : en:Chapter 25
01:39:57.741 : en:Chapter 26
01:42:05.452 : en:Chapter 27
01:44:59.876 : en:Chapter 28
01:47:00.831 : en:Chapter 29
01:51:09.871 : en:Chapter 30
01:54:14.597 : en:Chapter 31
01:57:03.975 : en:Chapter 32
02:00:14.207 : en:Chapter 33
02:03:37.535 : en:Chapter 34
02:09:07.573 : en:Chapter 35
02:12:27.272 : en:Chapter 36
02:15:22.739 : en:Chapter 37
02:19:58.640 : en:Chapter 38
02:24:26.658 : en:Chapter 39



Скачать Темный рыцарь через торрент http://i99.fastpic.ru/big/2018/0118/c3/35e9cb05b9da3c932288e0ebfd633dc3.png Скачать, смотреть онлайн Темный рыцарь бесплантно в хорошем качестве Описание: Бэтмен поднимает ставки в войне с криминалом. С помощью лейтенанта Джима Гордона и прокурора Харви Дента он намерен очистить ... 8.9 10 8
Info! Золотая раздача, скачанное не засчитывается.
Торрент: Зарегистрирован [2018-01-18 16:39] · скачан: 187 раз
Статус: √ проверено
Размер: 66.73 GB
Как cкачать? Как скачать Темный рыцарь через торрент | UTorrent

% Раздел Тема Автор DL S | L
Фильмы [HD 720p, 1080p] (Хороший звук DUB, MVO) [ 11.53 GB ] Темный рыцарь / The Dark Knight | DUB | 720p, IMAX _denis_100 Скачать
1 | 0
Ultra HD (UHD: 2K, 4K, 8K) [ 34.74 GB ] Темный рыцарь / The Dark Knight | DUB | 2160p sheker187 Скачать
1 | 0
Фильмы 2006-2008 [ 5.04 GB ] Темный рыцарь / The Dark Knight | DUB |CEE| + MVO |Кравец| + 3xAVO |Сербин | BDRip Mr. Freeman Скачать
1 | 0

28-11-2019 20:33  


Отключить вcю реклaмy на сайте, в т.ч. и в плеере онлайн просмотра!

18-01-2018 17:08 Темный рыцарь Скачать торрент  

Хит Леджер легенда !
даю золото : )



    Дорогой пользователь! Огромная просьба, поблагодарите релизера, оцените раздачу и оставьте свои комментарий, если Вы скачали Темный рыцарь через торрент бесплатно!!
    Комментировать посты могут только пользователи прошедшие не сложную регистрацию
    Показать сообщения:    


    Темный рыцарь через торрент
    Скачать бесплатно Темный рыцарь
    Темный рыцарь скачать торрент
    Темный рыцарь смотреть онлайн
    Cкачать фильм Темный рыцарь бесплатно
    Темный рыцарь скачать торрент в хорошем качестве
    Темный рыцарь смотреть онлайн бесплатно в хорошем качестве
    Вы не можете начинать темы
    Вы не можете отвечать на сообщения
    Вы не можете редактировать свои сообщения
    Вы не можете удалять свои сообщения
    Вы не можете голосовать в опросах
    Вы не можете прикреплять файлы к сообщениям
    Вы можете скачивать файлы
    Темный рыцарь / The Dark Knight [2008, фантастика, боевик, триллер, UHD BDRemux 2160p] Дубляж [rus, ukr] + MVO + 3xAVO + 2xVO смотреть онлайн, скачать торрент picoco.icu