Достать ножи: Стеклянная луковица

MVO

Добыча

Дубляж

Уэнсдэй

1 сезон

Тор

Дубляж

13 клиническая

1 сезон

Жестокая ночь

MVO

Одни из нас

1 сезон

Deluxe

pack

Рекомендуем

30

Пиратка

ВАЖНО

ВАЖНО

Ghostwire

Пиратка

jed

RePack

nioh2

RePack

RDR2

RePack

NEED FOR SPEED™ PAYBACK

RePack

скачать торрент

Кинопоиск HD

Острые козырьки 6 сезон

6 сезон

FAR CRY 6

RePack

скачать торрент

Лицензия

скачать торрент

MVO

1

1 сезон

скачать торрент

1 сезон

скачать торрент

Лицензия

  

Темный рыцарь: Возрождение легенды / The Dark Knight Rises (Кристофер Нолан) [2012, Фантастика, боевик, триллер, драма, UHD BDRemux 2160p] Дубляж (rus, ukr) +3xAVO [IMAX]

Темный рыцарь: Возрождение легенды через торрент 5050.piratbit.fun

Размер: 85.07 GB | Добавлен: 5 лет назад | Торрент скачан:130 раз
Смотреть онлайн | Скачать | Поддержите нас   

20-01-2018 11:19 Темный рыцарь: Возрождение легенды Скачать торрент  

Темный рыцарь: Возрождение легенды / The Dark Knight RisesГод выпуска: 2012
Страна: США, Великобритания
Жанр: Фантастика, боевик, триллер, драма
Продолжительность: 02:44:32
Перевод: Дубляж, авторский
Субтитры: Русские, английские, украинские

Режиссер: Кристофер Нолан

rating

В ролях:

Кристиан Бэйл, Том Харди, Энн Хэтэуэй, Джозеф Гордон-Левитт, Марион Котийяр, Гэри Олдман, Морган Фримен, Майкл Кейн, Мэттью Модайн, Бен Мендельсон, Дэниэл Санжата, Эйден Гиллен

Описание:

Восемь лет назад Бэтмен растворился в ночи, превратившись из героя в беглеца. Приняв на себя вину за смерть прокурора Харви Дента, Темный рыцарь пожертвовал всем. Вместе с комиссаром Гордоном они решили, что так будет лучше для всех. Пока преступность была раздавлена антикриминальным актом Дента, ложь действовала. Но с появлением хитрой воровки с загадочным прошлым всё меняется. Тем не менее, еще опаснее становится появление террориста Бэйна, чье лицо закрыто маской. Он разворачивает в Готэме чудовищную деятельность, вынуждая Брюса Уэйна выйти из импровизированного изгнания. Однако, даже надев свой костюм, Бэтмен может проиграть Бэйну.

Качество: UHD BDRemux 2160p
Формат: MKV

Видео: HEVC HDR, 55805 Кбит/с, 3840x2160, 23.976 Кадр/с
Аудио#1: Русский, Dolby Digital Audio, 448 кбит / с 5.1 / 48 кГц / 448 кбит / - Дублированный (BluRay 4K)
Аудио#2: Украинский, Dolby Digital Audio, 448 кбит / с 5.1 / 48 кГц / 448 кбит - Дублированный (BluRay CEE)
Аудио#3: Русский, 48 kHz/24-bit, DTS-HD MA 5.1, ~4074.00 kbps avg - Авторский (Ю.Живов)
Аудио#4: Русский, 48 kHz/24-bit, DTS-HD MA 5.1, ~4052.00 kbps avg - Авторский (Ю.Сербин)
Аудио#5: Русский, 48 kHz/24-bit, DTS-HD MA 5.1, ~4054.00 kbps avg - Авторский (А.Дасевич)
Аудио#6: Английский, 48 kHz/24-bit, DTS-HD MA 5.1, ~4037 kbps (DTS Core: 5.1 / 48 kHz / 1509 kbps / 24-bit) - Оригинал
Аудио#7: Английский, Dolby Digital Audio, 640 кбит / с 5.1 / 48 кГц / 448 кбит / - Оригин
скриншот  скриншот  скриншот  скриншот  скриншот  скриншот  

Видео
Идентификатор : 1
Формат : HEVC
Формат/Информация : High Efficiency Video Coding
Профиль формата : Main [email protected]@High
Идентификатор кодека : V_MPEGH/ISO/HEVC
Продолжительность : 2 ч. 44 м.
Битрейт : 55,8 Мбит/сек
Ширина : 3840 пикселей
Высота : 2160 пикселей
Соотношение сторон : 16:9
Режим частоты кадров : Постоянный
Частота кадров : 23,976 (24000/1001) кадра/сек
Цветовое пространство : YUV
Субдискретизация насыщенности : 4:2:0 (Type 2)
Битовая глубина : 10 бит
Бит/(Пиксели*Кадры) : 0.281
Размер потока : 64,1 Гбайт (75%)
Заголовок : The.Dark.Knight.Rises.2012.2160p.BluRay.HEVC
Default : Да
Forced : Нет
Цветовой диапазон : Limited
Основные цвета : BT.2020
Характеристики трансфера : PQ
Коэффициенты матрицы : BT.2020 non-constant
MasteringDisplay_ColorPrimaries : Display P3
MasteringDisplay_Luminance : min: 0.0050 cd/m2, max: 4000 cd/m2
MaxCLL : 500 cd/m2
MaxFALL : 200 cd/m2

Аудио #1
Идентификатор : 2
Формат : AC-3
Формат/Информация : Audio Coding 3
Идентификатор кодека : A_AC3
Продолжительность : 2 ч. 44 м.
Вид битрейта : Постоянный
Битрейт : 448 Кбит/сек
Каналы : 6 каналов
Расположение каналов : Front: L C R, Side: L R, LFE
Частота : 48,0 КГц
Частота кадров : 31,250 кадров/сек (1536 SPF)
Битовая глубина : 16 бит
Метод сжатия : С потерями
Размер потока : 527 Мбайт (1%)
Заголовок : Дублированный BluRay 4K
Язык : Russian
ServiceKind/String : Complete Main
Default : Да
Forced : Нет

Аудио #2
Идентификатор : 3
Формат : AC-3
Формат/Информация : Audio Coding 3
Идентификатор кодека : A_AC3
Продолжительность : 2 ч. 44 м.
Вид битрейта : Постоянный
Битрейт : 448 Кбит/сек
Каналы : 6 каналов
Расположение каналов : Front: L C R, Side: L R, LFE
Частота : 48,0 КГц
Частота кадров : 31,250 кадров/сек (1536 SPF)
Битовая глубина : 16 бит
Метод сжатия : С потерями
Размер потока : 527 Мбайт (1%)
Заголовок : Дублированный BluRay CEE
Язык : Ukrainian
ServiceKind/String : Complete Main
Default : Нет
Forced : Нет

Аудио #3
Идентификатор : 4
Формат : DTS
Формат/Информация : Digital Theater Systems
Профиль формата : MA / Core
Идентификатор кодека : A_DTS
Продолжительность : 2 ч. 44 м.
Вид битрейта : Переменный / Постоянный
Битрейт : 4073 Кбит/сек / 1509 Кбит/сек
Каналы : 6 каналов
Расположение каналов : Front: L C R, Side: L R, LFE
Частота : 48,0 КГц
Частота кадров : 93,750 кадра/сек (512 SPF)
Битовая глубина : 24 бит
Метод сжатия : Без потерь / Lossy
Размер потока : 4,68 Гбайт (6%)
Заголовок : Юрий Живов
Язык : Russian
Default : Нет
Forced : Нет

Аудио #4
Идентификатор : 5
Формат : DTS
Формат/Информация : Digital Theater Systems
Профиль формата : MA / Core
Идентификатор кодека : A_DTS
Продолжительность : 2 ч. 44 м.
Вид битрейта : Переменный / Постоянный
Битрейт : 4052 Кбит/сек / 1509 Кбит/сек
Каналы : 6 каналов
Расположение каналов : Front: L C R, Side: L R, LFE
Частота : 48,0 КГц
Частота кадров : 93,750 кадра/сек (512 SPF)
Битовая глубина : 24 бит
Метод сжатия : Без потерь / Lossy
Размер потока : 4,66 Гбайт (5%)
Заголовок : Юрий Сербин
Язык : Russian
Default : Нет
Forced : Нет

Аудио #5
Идентификатор : 6
Формат : DTS
Формат/Информация : Digital Theater Systems
Профиль формата : MA / Core
Идентификатор кодека : A_DTS
Продолжительность : 2 ч. 44 м.
Вид битрейта : Переменный / Постоянный
Битрейт : 4054 Кбит/сек / 1509 Кбит/сек
Каналы : 6 каналов
Расположение каналов : Front: L C R, Side: L R, LFE
Частота : 48,0 КГц
Частота кадров : 93,750 кадра/сек (512 SPF)
Битовая глубина : 24 бит
Метод сжатия : Без потерь / Lossy
Размер потока : 4,66 Гбайт (5%)
Заголовок : Александр Дасевич
Язык : Russian
Default : Нет
Forced : Нет

Аудио #6
Идентификатор : 7
Формат : DTS
Формат/Информация : Digital Theater Systems
Профиль формата : MA / Core
Идентификатор кодека : A_DTS
Продолжительность : 2 ч. 44 м.
Вид битрейта : Переменный / Постоянный
Битрейт : 4037 Кбит/сек / 1509 Кбит/сек
Каналы : 6 каналов
Расположение каналов : Front: L C R, Side: L R, LFE
Частота : 48,0 КГц
Частота кадров : 93,750 кадра/сек (512 SPF)
Битовая глубина : 24 бит
Метод сжатия : Без потерь / Lossy
Размер потока : 4,64 Гбайт (5%)
Заголовок : Original
Язык : English
Default : Нет
Forced : Нет

Аудио #7
Идентификатор : 8
Формат : AC-3
Формат/Информация : Audio Coding 3
Идентификатор кодека : A_AC3
Продолжительность : 2 ч. 44 м.
Вид битрейта : Постоянный
Битрейт : 640 Кбит/сек
Каналы : 6 каналов
Расположение каналов : Front: L C R, Side: L R, LFE
Частота : 48,0 КГц
Частота кадров : 31,250 кадров/сек (1536 SPF)
Битовая глубина : 16 бит
Метод сжатия : С потерями
Размер потока : 753 Мбайт (1%)
Заголовок : English
Язык : English
ServiceKind/String : Complete Main
Default : Нет
Forced : Нет

Аудио #8
Идентификатор : 9
Формат : AC-3
Формат/Информация : Audio Coding 3
Идентификатор кодека : A_AC3
Продолжительность : 2 ч. 44 м.
Вид битрейта : Постоянный
Битрейт : 448 Кбит/сек
Каналы : 6 каналов
Расположение каналов : Front: L C R, Side: L R, LFE
Частота : 48,0 КГц
Частота кадров : 31,250 кадров/сек (1536 SPF)
Битовая глубина : 16 бит
Метод сжатия : С потерями
Размер потока : 527 Мбайт (1%)
Заголовок : English + Audiodescription
Язык : English
ServiceKind/String : Complete Main
Default : Нет
Forced : Нет

Текст #1
Идентификатор : 10
Формат : UTF-8
Идентификатор кодека : S_TEXT/UTF8
Идентификатор кодека/Информация : UTF-8 Plain Text
Продолжительность : 1 ч. 56 м.
Битрейт : 0 бит/сек
ElementCount : 13
Размер потока : 633 байт (0%)
Заголовок : Forced
Язык : Russian
Default : Да
Forced : Да

Текст #2
Идентификатор : 11
Формат : UTF-8
Идентификатор кодека : S_TEXT/UTF8
Идентификатор кодека/Информация : UTF-8 Plain Text
Продолжительность : 2 ч. 43 м.
Битрейт : 64 бит/сек
ElementCount : 1847
Размер потока : 77,2 Кбайт (0%)
Заголовок : BD CEE
Язык : Russian
Default : Нет
Forced : Нет

Текст #3
Идентификатор : 12
Формат : UTF-8
Идентификатор кодека : S_TEXT/UTF8
Идентификатор кодека/Информация : UTF-8 Plain Text
Продолжительность : 2 ч. 43 м.
Битрейт : 64 бит/сек
ElementCount : 1846
Размер потока : 77,2 Кбайт (0%)
Заголовок : Full
Язык : Russian
Default : Нет
Forced : Нет

Текст #4
Идентификатор : 13
Формат : UTF-8
Идентификатор кодека : S_TEXT/UTF8
Идентификатор кодека/Информация : UTF-8 Plain Text
Продолжительность : 2 ч. 34 м.
Битрейт : 96 бит/сек
ElementCount : 1688
Размер потока : 109 Кбайт (0%)
Заголовок : Нотабеноид
Язык : Russian
Default : Нет
Forced : Нет

Текст #5
Идентификатор : 14
Формат : UTF-8
Идентификатор кодека : S_TEXT/UTF8
Идентификатор кодека/Информация : UTF-8 Plain Text
Продолжительность : 2 ч. 36 м.
Битрейт : 98 бит/сек
ElementCount : 1858
Размер потока : 112 Кбайт (0%)
Заголовок : Воронин Full
Язык : Russian
Default : Нет
Forced : Нет

Текст #6
Идентификатор : 15
Формат : UTF-8
Идентификатор кодека : S_TEXT/UTF8
Идентификатор кодека/Информация : UTF-8 Plain Text
Продолжительность : 2 ч. 36 м.
Битрейт : 104 бит/сек
ElementCount : 1981
Размер потока : 120 Кбайт (0%)
Заголовок : Воронин SDH
Язык : Russian
Default : Нет
Forced : Нет

Текст #7
Идентификатор : 16
Формат : UTF-8
Идентификатор кодека : S_TEXT/UTF8
Идентификатор кодека/Информация : UTF-8 Plain Text
Продолжительность : 1 ч. 46 м.
Битрейт : 0 бит/сек
ElementCount : 12
Размер потока : 616 байт (0%)
Заголовок : Forced
Язык : Ukrainian
Default : Нет
Forced : Да

Текст #8
Идентификатор : 17
Формат : UTF-8
Идентификатор кодека : S_TEXT/UTF8
Идентификатор кодека/Информация : UTF-8 Plain Text
Продолжительность : 2 ч. 34 м.
Битрейт : 56 бит/сек
ElementCount : 1776
Размер потока : 64,2 Кбайт (0%)
Заголовок : Full 1
Язык : English
Default : Нет
Forced : Нет

Текст #9
Идентификатор : 18
Формат : UTF-8
Идентификатор кодека : S_TEXT/UTF8
Идентификатор кодека/Информация : UTF-8 Plain Text
Продолжительность : 2 ч. 34 м.
Битрейт : 57 бит/сек
ElementCount : 1778
Размер потока : 65,0 Кбайт (0%)
Заголовок : Full 2
Язык : English
Default : Нет
Forced : Нет

Текст #10
Идентификатор : 19
Формат : UTF-8
Идентификатор кодека : S_TEXT/UTF8
Идентификатор кодека/Информация : UTF-8 Plain Text
Продолжительность : 2 ч. 34 м.
Битрейт : 61 бит/сек
ElementCount : 1940
Размер потока : 69,3 Кбайт (0%)
Заголовок : Full, SDH
Язык : English
Default : Нет
Forced : Нет

Текст #11
Идентификатор : 20
Формат : UTF-8
Идентификатор кодека : S_TEXT/UTF8
Идентификатор кодека/Информация : UTF-8 Plain Text
Продолжительность : 2 ч. 34 м.
Битрейт : 73 бит/сек
ElementCount : 1911
Размер потока : 82,5 Кбайт (0%)
Заголовок : Full, SDH - Colored
Язык : English
Default : Нет
Forced : Нет

Меню
00:00:00.000 : en:Chapter 1
00:09:02.792 : en:Chapter 2
00:19:08.480 : en:Chapter 3
00:30:15.814 : en:Chapter 4
00:41:08.757 : en:Chapter 5
00:51:09.483 : en:Chapter 6
01:00:29.626 : en:Chapter 7
01:10:03.991 : en:Chapter 8
01:20:13.433 : en:Chapter 9
01:31:00.538 : en:Chapter 10
01:39:24.249 : en:Chapter 11
01:48:58.448 : en:Chapter 12
02:00:21.547 : en:Chapter 13
02:10:47.631 : en:Chapter 14
02:19:12.594 : en:Chapter 15
02:30:14.588 : en:Chapter 16
02:36:50.526 : en:Chapter 17




Скачать Темный рыцарь: Возрождение легенды через торрент http://i101.fastpic.ru/big/2018/0118/6a/2716202e0ebe34e1b20ff023f21ffe6a.png Скачать, смотреть онлайн Темный рыцарь: Возрождение легенды бесплантно в хорошем качестве Описание: Восемь лет назад Бэтмен растворился в ночи, превратившись из героя в беглеца. Приняв на себя вину за смерть прокурора Харви ... 8.5 10 6
Info! Золотая раздача, скачанное не засчитывается.
Торрент: Зарегистрирован [2018-01-20 11:19] · скачан: 130 раз
Статус: √ проверено
Размер: 85.07 GB
Как cкачать? Как скачать Темный рыцарь: Возрождение легенды через торрент | UTorrent

% Раздел Тема Автор DL S | L
Ultra HD (UHD: 2K, 4K, 8K) [ 43.28 GB ] Темный рыцарь: Возрождение легенды / The Dark Knight Rises | DUB | 2160p sheker187 Скачать
1 | 0

28-11-2019 20:33  


Отключить вcю реклaмy на сайте, в т.ч. и в плеере онлайн просмотра!

    Дорогой пользователь! Огромная просьба, поблагодарите релизера, оцените раздачу и оставьте свои комментарий, если Вы скачали Темный рыцарь: Возрождение легенды через торрент бесплатно!!
    Комментировать посты могут только пользователи прошедшие не сложную регистрацию
    Показать сообщения:    


    Темный рыцарь: Возрождение легенды через торрент
    Скачать бесплатно Темный рыцарь: Возрождение легенды
    Темный рыцарь: Возрождение легенды скачать торрент
    Темный рыцарь: Возрождение легенды смотреть онлайн
    Cкачать фильм Темный рыцарь: Возрождение легенды бесплатно
    Темный рыцарь: Возрождение легенды скачать торрент в хорошем качестве
    Темный рыцарь: Возрождение легенды смотреть онлайн бесплатно в хорошем качестве
    Вы не можете начинать темы
    Вы не можете отвечать на сообщения
    Вы не можете редактировать свои сообщения
    Вы не можете удалять свои сообщения
    Вы не можете голосовать в опросах
    Вы не можете прикреплять файлы к сообщениям
    Вы можете скачивать файлы
    Темный рыцарь: Возрождение легенды / The Dark Knight Rises [2012, Фантастика, боевик, триллер, драма, UHD BDRemux 2160p] Дубляж +3xAVO [IMAX] смотреть онлайн, скачать торрент picoco.icu