Достать ножи: Стеклянная луковица

MVO

Добыча

Дубляж

Уэнсдэй

1 сезон

Тор

Дубляж

13 клиническая

1 сезон

Жестокая ночь

MVO

Одни из нас

1 сезон

Deluxe

pack

Рекомендуем

30

Пиратка

ВАЖНО

ВАЖНО

Ghostwire

Пиратка

jed

RePack

nioh2

RePack

RDR2

RePack

NEED FOR SPEED™ PAYBACK

RePack

скачать торрент

Кинопоиск HD

Острые козырьки 6 сезон

6 сезон

FAR CRY 6

RePack

скачать торрент

Лицензия

скачать торрент

MVO

1

1 сезон

скачать торрент

1 сезон

скачать торрент

Лицензия

  

Тихоокеанский рубеж / Pacific Rim (Гильермо дель Торо) [2013, Фантастика, фэнтези, боевик, приключения, UHD BDRemux 2160p] 2xAVO+MVO+Дубляж (rus, ukr)

Тихоокеанский рубеж через торрент 5050.piratbit.fun

Размер: 79.02 GB | Добавлен: 5 лет назад | Торрент скачан:78 раз
Смотреть онлайн | Скачать | Поддержите нас   

21-01-2018 10:58 Тихоокеанский рубеж Скачать торрент  

Тихоокеанский рубеж / Pacific RimГод выпуска: 2013
Страна: США
Жанр: Фантастика, фэнтези, боевик, приключения
Продолжительность: 02:11:16
Перевод: Дубляж, профессиональный многоголосый, авторский

Субтитры:

Russian (Forced, iTunes), Russian (iTunes), Ukrainian (Forced, iTunes),
Ukrainian (iTunes), English, English (SDH), English (SDH-COLORED), softsub (SRT)

Режиссер: Гильермо дель Торо

rating

В ролях:

Чарли Ханнэм, Идрис Эльба, Ринко Кикучи, Чарли Дэй, Роберт Казински, Макс Мартини, Рон Перлман, Клифтон Коллинз мл., Диего Клаттенхофф, Берн Горман

Описание:

Когда из морских глубин поднялись легионы чудовищ, известных как Кайдзу, началась война, которой суждено было забрать миллионы жизней и свести «человеческие ресурсы» почти к нулю всего за несколько лет. Чтобы сражаться с пришельцами, было создано специальное оружие: огромные роботы, названные Джегерами, они управлялись одновременно двумя пилотами, чьи сознания соединены с помощью нейронной связи. Но даже Джегеры оказываются почти бессильны перед лицом безжалостных Кайдзу. На грани поражения у защитников человечества нет выбора, кроме как обратиться к двум весьма сомнительным героям — никому не нужному бывшему пилоту и неопытному стажеру — которые объединились, чтобы повести в бой некогда легендарного, но сейчас устаревшего Джегера. Вместе они оказываются единственной надеждой человечества, последним препятствием перед надвигающимся апокалипсисом.

Качество: UHD BDRemux 2160p
Формат: MKV

Видео: 61230 Кбит/с, 3840x2160, 23.976 Кадр/с
Аудио#1: Русский, Dolby Digital Audio, 5.1 / 48 kHz / 640 kbps - Дублированный (BluRay 4K)
Аудио#2: Украинский, Dolby Digital Audio, 5.1 / 48 kHz / 640 kbps - Дублированный (BluRay CEE)
Аудио#3: Русский, DTS-HD Master Audio, 7.1 / 48 kHz / 5489 kbps / 24-bit (DTS Core: 5.1 / 48 kHz / 1509 kbps / 24-bit) - Пиратская многоголоска
Аудио#4: Русский, DTS-HD Master Audio, 7.1 / 48 kHz / 5494 kbps / 24-bit (DTS Core: 5.1 / 48 kHz / 1509 kbps / 24-bit) - Авторский Ю.Сербин
Аудио#5: Русский, Dolby Digital Audio, 5.1 / 48 kHz / 448 kbps - Авторский (Л.Володарский)
Аудио#6: Английский DTS-HD Master Audio, 7.1 / 48 kHz / 5461 kbps / 24-bit (DTS Core: 5.1 / 48 kHz / 1509 kbps / 24-bit) - Оригинал
Аудио#7: Английский Dolby Atmos / TrueHD Audio , 5862 kbps 7.1-Atmos / 48 кГц / 5862 kbps / 24-бит - - Оригинал
Аудио#8: Английский Dolby Digital Audio , 5.1 / 48 кГц / 448 kbps - Оригинал
Аудио#9: Английский Dolby Digital Audio , 640 kbps 5.1 / 48 кГц - Audiodeion
Аудио#10: Английский Dolby Digital Audio 2.0 / 48 kHz / 192 kbps - Commentary By Guillermo Del Toro
скриншот  скриншот  скриншот  скриншот  скриншот  скриншот  

Видео
Идентификатор : 1
Формат : HEVC
Формат/Информация : High Efficiency Video Coding
Профиль формата : Main [email protected]@High
Идентификатор кодека : V_MPEGH/ISO/HEVC
Продолжительность : 2 ч. 11 м.
Битрейт : 61,2 Мбит/сек
Ширина : 3840 пикселей
Высота : 2160 пикселей
Соотношение сторон : 16:9
Режим частоты кадров : Постоянный
Частота кадров : 23,976 (24000/1001) кадра/сек
Цветовое пространство : YUV
Субдискретизация насыщенности : 4:2:0 (Type 2)
Битовая глубина : 10 бит
Бит/(Пиксели*Кадры) : 0.308
Размер потока : 56,1 Гбайт (71%)
Заголовок : Pacific.Rim.2013.2160p.BluRay.Remux.HEVC.HDR
Библиотека кодирования : ATEME Titan KFE 3.7.3 (4.7.3.1003)
Default : Да
Forced : Нет
Цветовой диапазон : Limited
Основные цвета : BT.2020
Характеристики трансфера : PQ
Коэффициенты матрицы : BT.2020 non-constant
MasteringDisplay_ColorPrimaries : Display P3
MasteringDisplay_Luminance : min: 0.0050 cd/m2, max: 4000 cd/m2
MaxCLL : 2465 cd/m2
MaxFALL : 823 cd/m2

Аудио #1
Идентификатор : 2
Формат : AC-3
Формат/Информация : Audio Coding 3
Идентификатор кодека : A_AC3
Продолжительность : 2 ч. 11 м.
Вид битрейта : Постоянный
Битрейт : 640 Кбит/сек
Каналы : 6 каналов
Расположение каналов : Front: L C R, Side: L R, LFE
Частота : 48,0 КГц
Частота кадров : 31,250 кадров/сек (1536 SPF)
Битовая глубина : 16 бит
Метод сжатия : С потерями
Размер потока : 601 Мбайт (1%)
Заголовок : Дублированный [Blu-ray 4K]
Язык : Russian
ServiceKind/String : Complete Main
Default : Да
Forced : Нет

Аудио #2
Идентификатор : 3
Формат : AC-3
Формат/Информация : Audio Coding 3
Идентификатор кодека : A_AC3
Продолжительность : 2 ч. 11 м.
Вид битрейта : Постоянный
Битрейт : 640 Кбит/сек
Каналы : 6 каналов
Расположение каналов : Front: L C R, Side: L R, LFE
Частота : 48,0 КГц
Частота кадров : 31,250 кадров/сек (1536 SPF)
Битовая глубина : 16 бит
Метод сжатия : С потерями
Размер потока : 601 Мбайт (1%)
Заголовок : Дублированный [Blu-ray CEE]
Язык : Ukrainian
ServiceKind/String : Complete Main
Default : Нет
Forced : Нет

Аудио #3
Идентификатор : 4
Формат : DTS
Формат/Информация : Digital Theater Systems
Профиль формата : MA / Core
Идентификатор кодека : A_DTS
Продолжительность : 2 ч. 11 м.
Вид битрейта : Переменный / Постоянный
Битрейт : 5489 Кбит/сек / 1509 Кбит/сек
Каналы : 8 каналов / 6 каналов
Расположение каналов : Front: L C R, Side: L R, Back: L R, LFE / Front: L C R, Side: L R, LFE
Частота : 48,0 КГц
Частота кадров : 93,750 кадра/сек (512 SPF)
Битовая глубина : 24 бит
Метод сжатия : Без потерь / Lossy
Размер потока : 5,03 Гбайт (6%)
Заголовок : MVO [Пиратская озвучка]
Язык : Russian
Default : Нет
Forced : Нет

Аудио #4
Идентификатор : 5
Формат : DTS
Формат/Информация : Digital Theater Systems
Профиль формата : MA / Core
Идентификатор кодека : A_DTS
Продолжительность : 2 ч. 11 м.
Вид битрейта : Переменный / Постоянный
Битрейт : 5493 Кбит/сек / 1509 Кбит/сек
Каналы : 8 каналов / 6 каналов
Расположение каналов : Front: L C R, Side: L R, Back: L R, LFE / Front: L C R, Side: L R, LFE
Частота : 48,0 КГц
Частота кадров : 93,750 кадра/сек (512 SPF)
Битовая глубина : 24 бит
Метод сжатия : Без потерь / Lossy
Размер потока : 5,04 Гбайт (6%)
Заголовок : Юрий Сербин
Язык : Russian
Default : Нет
Forced : Нет

Аудио #5
Идентификатор : 6
Формат : AC-3
Формат/Информация : Audio Coding 3
Идентификатор кодека : A_AC3
Продолжительность : 2 ч. 11 м.
Вид битрейта : Постоянный
Битрейт : 448 Кбит/сек
Каналы : 6 каналов
Расположение каналов : Front: L C R, Side: L R, LFE
Частота : 48,0 КГц
Частота кадров : 31,250 кадров/сек (1536 SPF)
Битовая глубина : 16 бит
Метод сжатия : С потерями
Размер потока : 421 Мбайт (1%)
Заголовок : Леонид Володарский
Язык : Russian
ServiceKind/String : Complete Main
Default : Нет
Forced : Нет

Аудио #6
Идентификатор : 7
Формат : DTS
Формат/Информация : Digital Theater Systems
Профиль формата : MA / Core
Идентификатор кодека : A_DTS
Продолжительность : 2 ч. 11 м.
Вид битрейта : Переменный / Постоянный
Битрейт : 5460 Кбит/сек / 1509 Кбит/сек
Каналы : 8 каналов / 6 каналов
Расположение каналов : Front: L C R, Side: L R, Back: L R, LFE / Front: L C R, Side: L R, LFE
Частота : 48,0 КГц
Частота кадров : 93,750 кадра/сек (512 SPF)
Битовая глубина : 24 бит
Метод сжатия : Без потерь / Lossy
Размер потока : 5,01 Гбайт (6%)
Заголовок : English
Язык : English
Default : Нет
Forced : Нет

Аудио #7
Идентификатор : 8
Формат : TrueHD
Профиль формата : TrueHD+Atmos / TrueHD
Идентификатор кодека : A_TRUEHD
Продолжительность : 2 ч. 11 м.
Вид битрейта : Переменный
Битрейт : 5414 Кбит/сек
Максимальный битрейт : 8448 Кбит/сек
Каналы : Object Based / 8 каналов
Расположение каналов : Object Based / Front: L C R, Side: L R, Back: L R, LFE
Частота : / 48,0 КГц
Частота кадров : 1200,000 кадров/сек (40 SPF)
Метод сжатия : Без потерь
Размер потока : 4,96 Гбайт (6%)
Заголовок : Original
Язык : English
Default : Нет
Forced : Нет

Аудио #8
Идентификатор : 9
Формат : AC-3
Формат/Информация : Audio Coding 3
Идентификатор кодека : A_AC3
Продолжительность : 2 ч. 11 м.
Вид битрейта : Постоянный
Битрейт : 448 Кбит/сек
Каналы : 6 каналов
Расположение каналов : Front: L C R, Side: L R, LFE
Частота : 48,0 КГц
Частота кадров : 31,250 кадров/сек (1536 SPF)
Битовая глубина : 16 бит
Метод сжатия : С потерями
Размер потока : 421 Мбайт (1%)
Заголовок : Original
Язык : English
ServiceKind/String : Complete Main
Default : Нет
Forced : Нет

Аудио #9
Идентификатор : 10
Формат : AC-3
Формат/Информация : Audio Coding 3
Идентификатор кодека : A_AC3
Продолжительность : 2 ч. 11 м.
Вид битрейта : Постоянный
Битрейт : 640 Кбит/сек
Каналы : 6 каналов
Расположение каналов : Front: L C R, Side: L R, LFE
Частота : 48,0 КГц
Частота кадров : 31,250 кадров/сек (1536 SPF)
Битовая глубина : 16 бит
Метод сжатия : С потерями
Размер потока : 601 Мбайт (1%)
Заголовок : Audiodescription
Язык : English
ServiceKind/String : Complete Main
Default : Нет
Forced : Нет

Аудио #10
Идентификатор : 11
Формат : AC-3
Формат/Информация : Audio Coding 3
Идентификатор кодека : A_AC3
Продолжительность : 2 ч. 11 м.
Вид битрейта : Постоянный
Битрейт : 192 Кбит/сек
Каналы : 2 канала
Расположение каналов : Front: L R
Частота : 48,0 КГц
Частота кадров : 31,250 кадров/сек (1536 SPF)
Битовая глубина : 16 бит
Метод сжатия : С потерями
Размер потока : 180 Мбайт (0%)
Заголовок : Commentary By Guillermo Del Toro
Язык : English
ServiceKind/String : Complete Main
Default : Нет
Forced : Нет

Текст #1
Идентификатор : 12
Формат : UTF-8
Идентификатор кодека : S_TEXT/UTF8
Идентификатор кодека/Информация : UTF-8 Plain Text
Продолжительность : 2 ч. 10 м.
Битрейт : 2 бит/сек
ElementCount : 46
Размер потока : 1,98 Кбайт (0%)
Заголовок : Forced, iTunes
Язык : Russian
Default : Да
Forced : Да

Текст #2
Идентификатор : 13
Формат : UTF-8
Идентификатор кодека : S_TEXT/UTF8
Идентификатор кодека/Информация : UTF-8 Plain Text
Продолжительность : 2 ч. 10 м.
Битрейт : 67 бит/сек
ElementCount : 1650
Размер потока : 64,7 Кбайт (0%)
Заголовок : iTunes
Язык : Russian
Default : Нет
Forced : Нет

Текст #3
Идентификатор : 14
Формат : UTF-8
Идентификатор кодека : S_TEXT/UTF8
Идентификатор кодека/Информация : UTF-8 Plain Text
Продолжительность : 2 ч. 10 м.
Битрейт : 2 бит/сек
ElementCount : 49
Размер потока : 2,46 Кбайт (0%)
Заголовок : Forced, iTunes
Язык : Ukrainian
Default : Нет
Forced : Да

Текст #4
Идентификатор : 15
Формат : UTF-8
Идентификатор кодека : S_TEXT/UTF8
Идентификатор кодека/Информация : UTF-8 Plain Text
Продолжительность : 2 ч. 10 м.
Битрейт : 87 бит/сек
ElementCount : 1659
Размер потока : 83,7 Кбайт (0%)
Заголовок : iTunes
Язык : Ukrainian
Default : Нет
Forced : Нет

Текст #5
Идентификатор : 16
Формат : UTF-8
Идентификатор кодека : S_TEXT/UTF8
Идентификатор кодека/Информация : UTF-8 Plain Text
Продолжительность : 2 ч. 4 м.
Битрейт : 55 бит/сек
ElementCount : 1618
Размер потока : 50,7 Кбайт (0%)
Заголовок : Full
Язык : English
Default : Нет
Forced : Нет

Текст #6
Идентификатор : 17
Формат : UTF-8
Идентификатор кодека : S_TEXT/UTF8
Идентификатор кодека/Информация : UTF-8 Plain Text
Продолжительность : 2 ч. 10 м.
Битрейт : 58 бит/сек
ElementCount : 1835
Размер потока : 56,3 Кбайт (0%)
Заголовок : SDH
Язык : English
Default : Нет
Forced : Нет

Текст #7
Идентификатор : 18
Формат : UTF-8
Идентификатор кодека : S_TEXT/UTF8
Идентификатор кодека/Информация : UTF-8 Plain Text
Продолжительность : 2 ч. 10 м.
Битрейт : 73 бит/сек
ElementCount : 1835
Размер потока : 70,5 Кбайт (0%)
Заголовок : SDH-COLORED
Язык : English
Default : Нет
Forced : Нет

Меню
00:00:00.000 : en:Chapter 1
00:09:09.090 : en:Chapter 2
00:18:35.781 : en:Chapter 3
00:23:04.299 : en:Chapter 4
00:33:00.353 : en:Chapter 5
00:42:44.853 : en:Chapter 6
00:50:01.623 : en:Chapter 7
01:01:09.624 : en:Chapter 8
01:14:45.063 : en:Chapter 9
01:22:21.269 : en:Chapter 10
01:32:09.899 : en:Chapter 11
01:41:55.567 : en:Chapter 12
01:51:37.816 : en:Chapter 13
01:59:20.987 : en:Chapter 14
02:02:17.788 : en:Chapter 15




Скачать Тихоокеанский рубеж через торрент http://i101.fastpic.ru/big/2018/0118/4a/435ef8a4540b1f73fc84b4a1ed9ddf4a.png Скачать, смотреть онлайн Тихоокеанский рубеж бесплантно в хорошем качестве Описание: Когда из морских глубин поднялись легионы чудовищ, известных как Кайдзу, началась война, которой суждено было забрать миллионы ... 8.1 10 9
Info! Золотая раздача, скачанное не засчитывается.
Торрент: Зарегистрирован [2018-01-21 10:58] · скачан: 78 раз
Статус: √ проверено
Размер: 79.02 GB
Как cкачать? Как скачать Тихоокеанский рубеж через торрент | UTorrent

% Раздел Тема Автор DL S | L
Фильмы (HD 720p, 1080p) (48-60 fps) [ 6.54 GB ] Тихоокеанский рубеж / Pacific Rim | Дубляж | 720p / 60 FPS slaventi-69 Скачать
2 | 0
Фильмы [HD 720p, 1080p] (Хороший звук DUB, MVO) [ 16.92 GB ] Тихоокеанский рубеж / Pacific Rim | Лицензия | 1080p, DUB лисяра Скачать
1 | 0
Сборники (HD Video) [ 15.54 GB ] Тихоокеанский рубеж: Дилогия / Pacific Rim: Dilogy | Лицензия | 1080p, (10 bit bober100 Скачать
2 | 0
Ultra HD (UHD: 2K, 4K, 8K) [ 22.74 GB ] Тихоокеанский рубеж / Pacific Rim | Лицензия BD EUR | 2160p (10 бит Леонид Ильич Скачать
1 | 0
Ultra HD (UHD: 2K, 4K, 8K) [ 52.88 GB ] Тихоокеанский рубеж / Pacific Rim | DUB | 2160p sheker187 Скачать
1 | 0
3D Фильмы [ 27.92 GB ] Тихоокеанский рубеж в 3Д / Pacific Rim 3D | Лицензия | 1080p serega768 Скачать
1 | 0
Ultra HD (UHD: 2K, 4K, 8K) [ 80.97 GB ] Тихоокеанский рубеж / Pacific Rim | Лицензия | 2160p sheker187 Скачать
1 | 0

28-11-2019 20:33  


Отключить вcю реклaмy на сайте, в т.ч. и в плеере онлайн просмотра!

    Дорогой пользователь! Огромная просьба, поблагодарите релизера, оцените раздачу и оставьте свои комментарий, если Вы скачали Тихоокеанский рубеж через торрент бесплатно!!
    Комментировать посты могут только пользователи прошедшие не сложную регистрацию
    Показать сообщения:    


    Тихоокеанский рубеж через торрент
    Скачать бесплатно Тихоокеанский рубеж
    Тихоокеанский рубеж скачать торрент
    Тихоокеанский рубеж смотреть онлайн
    Cкачать фильм Тихоокеанский рубеж бесплатно
    Тихоокеанский рубеж скачать торрент в хорошем качестве
    Тихоокеанский рубеж смотреть онлайн бесплатно в хорошем качестве
    Вы не можете начинать темы
    Вы не можете отвечать на сообщения
    Вы не можете редактировать свои сообщения
    Вы не можете удалять свои сообщения
    Вы не можете голосовать в опросах
    Вы не можете прикреплять файлы к сообщениям
    Вы можете скачивать файлы
    Тихоокеанский рубеж / Pacific Rim [2013, Фантастика, фэнтези, боевик, приключения, UHD BDRemux 2160p] 2xAVO+MVO+Дубляж смотреть онлайн, скачать торрент picoco.icu