Достать ножи: Стеклянная луковица

MVO

Добыча

Дубляж

Уэнсдэй

1 сезон

Тор

Дубляж

13 клиническая

1 сезон

Жестокая ночь

MVO

Одни из нас

1 сезон

Deluxe

pack

Рекомендуем

30

Пиратка

ВАЖНО

ВАЖНО

Ghostwire

Пиратка

jed

RePack

nioh2

RePack

RDR2

RePack

NEED FOR SPEED™ PAYBACK

RePack

скачать торрент

Кинопоиск HD

Острые козырьки 6 сезон

6 сезон

FAR CRY 6

RePack

скачать торрент

Лицензия

скачать торрент

MVO

1

1 сезон

скачать торрент

1 сезон

скачать торрент

Лицензия

  

РЭД / RED (Роберт Швентке) [2010, боевик, триллер, комедия, криминал, UHD BDRemux 2160p] Дубляж [rus, ukr] + 3xAVO

РЭД через торрент 5050.piratbit.fun

Размер: 89.32 GB | Добавлен: 5 лет назад | Торрент скачан:82 раза
Смотреть онлайн | Скачать | Поддержите нас   

22-01-2018 04:03 РЭД Скачать торрент  

РЭД / RED«Бывших агентов не бывает»
Год выпуска: 2010
Страна: США
Жанр: боевик, триллер, комедия, криминал
Продолжительность: 01:51:19
Перевод: Дублированный, авторский - (Гаврилов, Есарев, Наследников)
Субтитры: Русские (Full - Paradise (License), mr_greenwood), английские (Full, SDH, Commentary with Consultant Bob Baer), украинские
Режиссер: Роберт Швентке
В ролях:

Брюс Уиллис, Джон Малкович, Морган Фриман, Хелен Миррен, Мэри-Луиз Паркер, Карл Урбан, Брайан Кокс, Ричард Дрейфусс, Джулиан МакМэхон, Эрнест Боргнайн, Джеймс Римар, Хайди фон Паллеске (Woman Neighbor)
Описание:
Фрэнк Мозес, экс-агент супергруппы ЦРУ, живет теперь мирной и тихой жизнью. Но прошлое настигает его: как-то утром загадочный киллер пытается лишить его жизни. Опытный Фрэнк, конечно, сумел увернуться от пули, но сразу понял, что дело «табак». Кто же поможет справиться с командой ликвидаторов? Конечно, бывшие напарники: харизматичный Джо Мэтисон и параноик Марвин Боггс. Прекрасный повод тряхнуть стариной!
Рейтинг:

MPAA: PG-13 - Детям до 13 лет просмотр не желателен
Качество: UHD BDRemux 2160p
Формат: MKV
Видео: HEVC, 75 Мбит/с, 3840x2160, 23.976 Кадр/с
Аудио №1: Русский DTS-HD МА, 6 ch, 2255 Кбит/с - Дублированный, Blu-ray RUS (FHD)
Аудио №2: Русский DTS-HD МА, 6 ch, 4019 Кбит/с - Одноголосый закадровый, А.Гаврилов
Аудио №3: Русский DTS-HD МА, 6 ch, 4022 Кбит/с - Одноголосый закадровый, Д.Есарев
Аудио №4: Русский DTS-HD МА, 6 ch, 4044 Кбит/с - Одноголосый закадровый, А.Наследников
Аудио №5: Украинский DTS-HD МА, 6 ch, 3935 Кбит/с - Дубляж
Аудио №6: Украинский AC3, 2 ch, 192 Кбит/с - Студия Tretyakoff production
Аудио №7: Английский TrueHD Atmos 8 ch 4933 Кбит/с
Аудио №8: Английский DTS-HD МА, 8 ch, 4091 Кбит/с
Аудио №9: Английский DTS-HD МА, 6 ch, 3998 Кбит/с
Аудио №10: Английский AC3, 2 ch, 640 Кбит/с
Аудио №11: Английский AC3, 2 ch, 192 Кбит/с - Commentary with Retired CIA Field Officer Robert Baer
Навигация по главам: есть
Видео #1
Идентификатор : 1
Формат : HEVC
Формат/Информация : High Efficiency Video Coding
Профиль формата : Main [email protected]@High
Идентификатор кодека : V_MPEGH/ISO/HEVC
Продолжительность : 1 ч. 51 м.
Битрейт : 75,0 Мбит/сек
Ширина : 3840 пикселей
Высота : 2160 пикселей
Соотношение сторон : 16:9
Режим частоты кадров : Постоянный
Частота кадров : 23,976 (24000/1001) кадра/сек
Цветовое пространство : YUV
Субдискретизация насыщенности : 4:2:0 (Type 2)
Битовая глубина : 10 бит
Бит/(Пиксели*Кадры) : 0.377
Размер потока : 58,3 Гбайт (65%)
Заголовок : RED.2010.2160p.BluRay.REMUX.HEVC.HDR
Default : Да
Forced : Нет
Цветовой диапазон : Limited
Основные цвета : BT.2020
Характеристики трансфера : PQ
Коэффициенты матрицы : BT.2020 non-constant
MasteringDisplay_ColorPrimaries : Display P3
MasteringDisplay_Luminance : min: 0.0050 cd/m2, max: 1000 cd/m2
MaxCLL : 1000 cd/m2
MaxFALL : 985 cd/m2

Видео #2
Идентификатор : 2
Формат : HEVC
Формат/Информация : High Efficiency Video Coding
Профиль формата : Main [email protected]@High
Идентификатор кодека : V_MPEGH/ISO/HEVC
Продолжительность : 1 ч. 51 м.
Битрейт : 7579 Кбит/сек
Ширина : 1920 пикселей
Высота : 1080 пикселей
Соотношение сторон : 16:9
Режим частоты кадров : Постоянный
Частота кадров : 23,976 (24000/1001) кадра/сек
Цветовое пространство : YUV
Субдискретизация насыщенности : 4:2:0 (Type 2)
Битовая глубина : 10 бит
Бит/(Пиксели*Кадры) : 0.152
Размер потока : 5,88 Гбайт (7%)
Заголовок : RED.2010.2160p.BluRay.REMUX.HEVC.HDR.Dolby Vision.Metadata
Default : Нет
Forced : Нет
Цветовой диапазон : Limited
Основные цвета : BT.2020
Характеристики трансфера : PQ
Коэффициенты матрицы : BT.2020 non-constant
MasteringDisplay_ColorPrimaries : Display P3
MasteringDisplay_Luminance : min: 0.0050 cd/m2, max: 1000 cd/m2

Аудио #1
Идентификатор : 3
Формат : DTS
Формат/Информация : Digital Theater Systems
Профиль формата : MA / Core
Идентификатор кодека : A_DTS
Продолжительность : 1 ч. 51 м.
Вид битрейта : Переменный / Постоянный
Битрейт : 2255 Кбит/сек / 1509 Кбит/сек
Каналы : 6 каналов
Расположение каналов : Front: L C R, Side: L R, LFE
Частота : 48,0 КГц
Частота кадров : 93,750 кадра/сек (512 SPF)
Битовая глубина : 16 бит
Метод сжатия : Без потерь / Lossy
Размер потока : 1,75 Гбайт (2%)
Заголовок : Дублированный, Blu-ray RUS (FHD)
Язык : Russian
Default : Да
Forced : Нет

Аудио #2
Идентификатор : 4
Формат : DTS
Формат/Информация : Digital Theater Systems
Профиль формата : MA / Core
Идентификатор кодека : A_DTS
Продолжительность : 1 ч. 51 м.
Вид битрейта : Переменный / Постоянный
Битрейт : 4019 Кбит/сек / 1509 Кбит/сек
Каналы : 6 каналов
Расположение каналов : Front: L C R, Side: L R, LFE
Частота : 48,0 КГц
Частота кадров : 93,750 кадра/сек (512 SPF)
Битовая глубина : 24 бит
Метод сжатия : Без потерь / Lossy
Размер потока : 3,12 Гбайт (3%)
Заголовок : Одноголосый закадровый, А.Гаврилов
Язык : Russian
Default : Нет
Forced : Нет

Аудио #3
Идентификатор : 5
Формат : DTS
Формат/Информация : Digital Theater Systems
Профиль формата : MA / Core
Идентификатор кодека : A_DTS
Продолжительность : 1 ч. 51 м.
Вид битрейта : Переменный / Постоянный
Битрейт : 4022 Кбит/сек / 1509 Кбит/сек
Каналы : 6 каналов
Расположение каналов : Front: L C R, Side: L R, LFE
Частота : 48,0 КГц
Частота кадров : 93,750 кадра/сек (512 SPF)
Битовая глубина : 24 бит
Метод сжатия : Без потерь / Lossy
Размер потока : 3,12 Гбайт (3%)
Заголовок : Одноголосый закадровый, Д.Есарев
Язык : Russian
Default : Нет
Forced : Нет

Аудио #4
Идентификатор : 6
Формат : DTS
Формат/Информация : Digital Theater Systems
Профиль формата : MA / Core
Идентификатор кодека : A_DTS
Продолжительность : 1 ч. 51 м.
Вид битрейта : Переменный / Постоянный
Битрейт : 4044 Кбит/сек / 1509 Кбит/сек
Каналы : 6 каналов
Расположение каналов : Front: L C R, Side: L R, LFE
Частота : 48,0 КГц
Частота кадров : 93,750 кадра/сек (512 SPF)
Битовая глубина : 24 бит
Метод сжатия : Без потерь / Lossy
Задержка видео : 21 мс.
Размер потока : 3,14 Гбайт (4%)
Заголовок : Одноголосый закадровый, А.Наследников
Язык : Russian
Default : Нет
Forced : Нет

Аудио #5
Идентификатор : 7
Формат : DTS
Формат/Информация : Digital Theater Systems
Профиль формата : MA / Core
Идентификатор кодека : A_DTS
Продолжительность : 1 ч. 51 м.
Вид битрейта : Переменный / Постоянный
Битрейт : 3935 Кбит/сек / 1509 Кбит/сек
Каналы : 6 каналов
Расположение каналов : Front: L C R, Side: L R, LFE
Частота : 48,0 КГц
Частота кадров : 93,750 кадра/сек (512 SPF)
Битовая глубина : 24 бит
Метод сжатия : Без потерь / Lossy
Размер потока : 3,06 Гбайт (3%)
Заголовок : DTS-HD Master Audio, 6 ch - Українська - дубляж [Line звук]
Язык : Ukrainian
Default : Нет
Forced : Нет

Аудио #6
Идентификатор : 8
Формат : AC-3
Формат/Информация : Audio Coding 3
Идентификатор кодека : A_AC3
Продолжительность : 1 ч. 51 м.
Вид битрейта : Постоянный
Битрейт : 192 Кбит/сек
Каналы : 2 канала
Расположение каналов : Front: L R
Частота : 48,0 КГц
Частота кадров : 31,250 кадров/сек (1536 SPF)
Битовая глубина : 16 бит
Метод сжатия : С потерями
Размер потока : 153 Мбайт (0%)
Заголовок : AC3 2.0 @ 192 kbps - Студия Tretyakoff production
Язык : Ukrainian
ServiceKind/String : Complete Main
Default : Нет
Forced : Нет

Аудио #7
Идентификатор : 9
Формат : TrueHD
Профиль формата : TrueHD+Atmos / TrueHD
Идентификатор кодека : A_TRUEHD
Продолжительность : 1 ч. 51 м.
Вид битрейта : Переменный
Битрейт : 4933 Кбит/сек
Максимальный битрейт : 8268 Кбит/сек
Каналы : Object Based / 8 каналов
Расположение каналов : Object Based / Front: L C R, Side: L R, Back: L R, LFE
Частота : / 48,0 КГц
Частота кадров : 1200,000 кадров/сек (40 SPF)
Метод сжатия : Без потерь
Задержка видео : 1 мс.
Размер потока : 3,83 Гбайт (4%)
Заголовок : TrueHD Atmos 8 ch
Язык : English
Default : Нет
Forced : Нет

Аудио #8
Идентификатор : 10
Формат : DTS
Формат/Информация : Digital Theater Systems
Профиль формата : MA / Core
Идентификатор кодека : A_DTS
Продолжительность : 1 ч. 51 м.
Вид битрейта : Переменный / Постоянный
Битрейт : 4091 Кбит/сек / 1509 Кбит/сек
Каналы : 8 каналов / 6 каналов
Расположение каналов : Front: L C R, Side: L R, Back: L R, LFE / Front: L C R, Side: L R, LFE
Частота : 48,0 КГц
Частота кадров : 93,750 кадра/сек (512 SPF)
Битовая глубина : 24 бит
Метод сжатия : Без потерь / Lossy
Размер потока : 3,18 Гбайт (4%)
Заголовок : DTS-HD Master Audio, 8 ch
Язык : English
Default : Нет
Forced : Нет

Аудио #9
Идентификатор : 11
Формат : DTS
Формат/Информация : Digital Theater Systems
Профиль формата : MA / Core
Идентификатор кодека : A_DTS
Продолжительность : 1 ч. 51 м.
Вид битрейта : Переменный / Постоянный
Битрейт : 3998 Кбит/сек / 1509 Кбит/сек
Каналы : 6 каналов
Расположение каналов : Front: L C R, Side: L R, LFE
Частота : 48,0 КГц
Частота кадров : 93,750 кадра/сек (512 SPF)
Битовая глубина : 24 бит
Метод сжатия : Без потерь / Lossy
Размер потока : 3,10 Гбайт (3%)
Заголовок : DTS-HD Master Audio, 6 ch
Язык : English
Default : Нет
Forced : Нет

Аудио #10
Идентификатор : 12
Формат : AC-3
Формат/Информация : Audio Coding 3
Идентификатор кодека : A_AC3
Продолжительность : 1 ч. 51 м.
Вид битрейта : Постоянный
Битрейт : 640 Кбит/сек
Каналы : 6 каналов
Расположение каналов : Front: L C R, Side: L R, LFE
Частота : 48,0 КГц
Частота кадров : 31,250 кадров/сек (1536 SPF)
Битовая глубина : 16 бит
Метод сжатия : С потерями
Задержка видео : 1 мс.
Размер потока : 509 Мбайт (1%)
Заголовок : English AC3 CORE
Язык : English
ServiceKind/String : Complete Main
Default : Нет
Forced : Нет

Аудио #11
Идентификатор : 13
Формат : AC-3
Формат/Информация : Audio Coding 3
Идентификатор кодека : A_AC3
Продолжительность : 1 ч. 51 м.
Вид битрейта : Постоянный
Битрейт : 192 Кбит/сек
Каналы : 2 канала
Расположение каналов : Front: L R
Частота : 48,0 КГц
Частота кадров : 31,250 кадров/сек (1536 SPF)
Битовая глубина : 16 бит
Метод сжатия : С потерями
Размер потока : 153 Мбайт (0%)
Заголовок : |Commentary with Retired CIA Field Officer Robert Baer|
Язык : English
ServiceKind/String : Complete Main
Default : Нет
Forced : Нет

Текст #1
Идентификатор : 14
Формат : UTF-8
Идентификатор кодека : S_TEXT/UTF8
Идентификатор кодека/Информация : UTF-8 Plain Text
Продолжительность : 1 ч. 44 м.
Битрейт : 79 бит/сек
ElementCount : 1182
Размер потока : 60,6 Кбайт (0%)
Заголовок : Full - Paradise (License)
Язык : Russian
Default : Нет
Forced : Нет

Текст #2
Идентификатор : 15
Формат : UTF-8
Идентификатор кодека : S_TEXT/UTF8
Идентификатор кодека/Информация : UTF-8 Plain Text
Продолжительность : 1 ч. 43 м.
Битрейт : 78 бит/сек
ElementCount : 978
Размер потока : 59,5 Кбайт (0%)
Заголовок : mr_greenwood
Язык : Russian
Default : Нет
Forced : Нет

Текст #3
Идентификатор : 16
Формат : UTF-8
Идентификатор кодека : S_TEXT/UTF8
Идентификатор кодека/Информация : UTF-8 Plain Text
Продолжительность : 1 ч. 43 м.
Битрейт : 78 бит/сек
ElementCount : 979
Размер потока : 59,2 Кбайт (0%)
Заголовок : Українські повні
Язык : Ukrainian
Default : Нет
Forced : Нет

Текст #4
Идентификатор : 17
Формат : UTF-8
Идентификатор кодека : S_TEXT/UTF8
Идентификатор кодека/Информация : UTF-8 Plain Text
Продолжительность : 1 ч. 42 м.
Битрейт : 45 бит/сек
ElementCount : 1238
Размер потока : 34,1 Кбайт (0%)
Заголовок : Full
Язык : English
Default : Нет
Forced : Нет

Текст #5
Идентификатор : 18
Формат : UTF-8
Идентификатор кодека : S_TEXT/UTF8
Идентификатор кодека/Информация : UTF-8 Plain Text
Продолжительность : 1 ч. 43 м.
Битрейт : 47 бит/сек
ElementCount : 1337
Размер потока : 36,2 Кбайт (0%)
Заголовок : SDH
Язык : English
Default : Нет
Forced : Нет

Текст #6
Идентификатор : 19
Формат : UTF-8
Идентификатор кодека : S_TEXT/UTF8
Идентификатор кодека/Информация : UTF-8 Plain Text
Продолжительность : 1 ч. 46 м.
Битрейт : 92 бит/сек
ElementCount : 1536
Размер потока : 72,1 Кбайт (0%)
Заголовок : Commentary with Consultant Bob Baer
Язык : English
Default : Нет
Forced : Нет

Меню
00:00:00.000 : en:1. The Check Is in the Mail
00:07:11.264 : en:2. They Know I Like You
00:14:03.426 : en:3. Total Black Out
00:20:53.461 : en:4. You Really Are CIA
00:24:06.570 : en:5. Not My Best First Date
00:29:10.457 : en:6. Tagged Him RED
00:35:56.571 : en:7. She Called Me An Old Man
00:43:26.687 : en:8. Hot Here for the Vodka
00:49:12.533 : en:9. Breaking Into the CIA
00:55:56.937 : en:10. Getting the Band Back Together
01:03:12.122 : en:11. A Little Girl Time
01:09:42.011 : en:12. How's Retirement?
01:15:24.270 : en:13. You're At My House
01:20:52.181 : en:14. Viсе President Stanton
01:27:14.104 : en:15. Secondary Exit
01:33:04.788 : en:16. I Remember the Secret Service Being Tougher
01:38:31.906 : en:17. Wanna Get Pancakes?
01:43:16.649 : en:18. Greetings From Moldova



Скачать РЭД через торрент http://i100.fastpic.ru/big/2018/0122/bc/d657624778dae9cfd9e1d83318501dbc.png Скачать, смотреть онлайн РЭД бесплантно в хорошем качестве Описание: Фрэнк Мозес, экс-агент супергруппы ЦРУ, живет теперь мирной и тихой жизнью. Но прошлое настигает его: как-то утром загадочный ... 9.2 10 6
Торрент: Зарегистрирован [2018-01-22 04:03] · скачан: 82 раз
Статус: √ проверено
Размер: 89.32 GB
Как cкачать? Как скачать РЭД через торрент | UTorrent

% Раздел Тема Автор DL S | L
Фильмы [HD 720p, 1080p] (Хороший звук DUB, MVO) [ 11.66 GB ] РЭД / RED | DUB + 2xAVO + VO | 1080p RealOldGamer Скачать
1 | 0

28-11-2019 20:33  


Отключить вcю реклaмy на сайте, в т.ч. и в плеере онлайн просмотра!

    Дорогой пользователь! Огромная просьба, поблагодарите релизера, оцените раздачу и оставьте свои комментарий, если Вы скачали РЭД через торрент бесплатно!!
    Комментировать посты могут только пользователи прошедшие не сложную регистрацию
    Показать сообщения:    


    РЭД через торрент
    Скачать бесплатно РЭД
    РЭД скачать торрент
    РЭД смотреть онлайн
    Cкачать фильм РЭД бесплатно
    РЭД скачать торрент в хорошем качестве
    РЭД смотреть онлайн бесплатно в хорошем качестве
    Вы не можете начинать темы
    Вы не можете отвечать на сообщения
    Вы не можете редактировать свои сообщения
    Вы не можете удалять свои сообщения
    Вы не можете голосовать в опросах
    Вы не можете прикреплять файлы к сообщениям
    Вы можете скачивать файлы
    РЭД / RED [2010, боевик, триллер, комедия, криминал, UHD BDRemux 2160p] Дубляж [rus, ukr] + 3xAVO смотреть онлайн, скачать торрент picoco.icu