Достать ножи: Стеклянная луковица

MVO

Добыча

Дубляж

Уэнсдэй

1 сезон

Тор

Дубляж

13 клиническая

1 сезон

Жестокая ночь

MVO

Одни из нас

1 сезон

Deluxe

pack

Рекомендуем

30

Пиратка

ВАЖНО

ВАЖНО

Ghostwire

Пиратка

jed

RePack

nioh2

RePack

RDR2

RePack

NEED FOR SPEED™ PAYBACK

RePack

скачать торрент

Кинопоиск HD

Острые козырьки 6 сезон

6 сезон

FAR CRY 6

RePack

скачать торрент

Лицензия

скачать торрент

MVO

1

1 сезон

скачать торрент

1 сезон

скачать торрент

Лицензия

  

Великий Гэтсби / The Great Gatsby (Баз Лурман) [2013, Драма, мелодрама, UHD BD Remux 2160p] Дубляж [rus, ukr] + AVO

Великий Гэтсби через торрент 5050.piratbit.fun

Размер: 70.92 GB | Добавлен: 5 лет назад | Торрент скачан:49 раз
Смотреть онлайн | Скачать | Поддержите нас   

24-01-2018 18:30 Великий Гэтсби Скачать торрент  

Великий Гэтсби / The Great Gatsby«Нельзя вернуть прошлое? Ну, конечно, можно!»
Год выпуска: 2013
Страна: Австралия, США
Жанр: Драма, мелодрама
Продолжительность: 02:22:05
Перевод: Дублированный, авторский
Субтитры: Русские, английские, украинские
Режиссер: Баз Лурман
В ролях:

Леонардо ДиКаприо (Jay Gatsby), Тоби Магуайр (Nick Carraway), Кэри Маллиган (Daisy Buchanan), Джоэл Эдгертон (Tom Buchanan), Айла Фишер (Myrtle Wilson), Джейсон Кларк (George Wilson), Элизабет Дебики (Jordan Baker), Каллэн МакОлифф (Teen Jay Gatsby), Джек Томпсон (Dr. Walter Perkins), Амитабх Баччан (Meyer Wolfsheim), Лиза Адам (Weeping), Фрэнк Элдридж (Well Dressed Male Witness - Wilson's Garage)
Описание:
1920-е годы. Нью-Йорк. На побережье Лонг-Айленда среди шикарных резиденций богатейших людей Америки затерялся маленький домик, который снял всего за сотню в месяц молодой парень - начинающий писатель, честно зарабатывающий начальный капитал в небольшой кредитной конторе. А рядом, всего в двух шагах от его скромного жилища, возвышался настоящий замок, куда на грандиозные вечеринки съезжались толпы весёлых гостей, шампанское лилось рекой, а от фейерверков и ночью было светло как днём! Говорят, что всё это было делом рук мистера Гэтсби - баснословно богатого и безмерно влиятельного! Странно, но почему-то больше никто и ничего не знал о нём - кто он такой, откуда взялся, как разбогател и, особенно, почему, стоя ночами на своём причале в полнейшем одиночестве и думая, что его никто не видит, он протягивал руку в темноту, туда, где на противоположном берегу возле такого же богатого дома мерцал сквозь туман маленький зелёный огонёк, даря зыбкую надежду и такую сладкую боль?...
Рейтинг:

Качество: UHD BD Remux 2160p
Формат: MKV
Видео: HEVC, 64444 Кбит/с, 3840x2160, 23.976 Кадр/с
Аудио №1: русский AC3, 6 ch, 448 Кбит/с Дублированный, Blu-ray 4k
Аудио №2: украинский AC3, 6 ch, 448 Кбит/с Дублированный, Blu-ray CEE
Аудио №3: русский AC3, 6 ch, 640 Кбит/с Авторский, Юрий Сербин
Аудио №4: русский DTS-HD MA, 6 ch, 2194 Кбит/с Авторский, Юрий Сербин
Аудио №5: английский DTS-HD MА, 6 ch, 2183 Кбит/с
Аудио №6: английский AC3, 6 ch, 640 Кбит/с
Аудио №7: английский AC3, 6 ch, 448 Кбит/с Audiodescription
Навигация по главам: есть
Видео
Идентификатор : 1
Формат : HEVC
Формат/Информация : High Efficiency Video Coding
Профиль формата : Main [email protected]@High
Идентификатор кодека : V_MPEGH/ISO/HEVC
Продолжительность : 2 ч. 22 м.
Битрейт : 64,4 Мбит/сек
Ширина : 3840 пикселей
Высота : 2160 пикселей
Соотношение сторон : 16:9
Режим частоты кадров : Постоянный
Частота кадров : 23,976 (23976/1000) кадра/сек
Частота кадров в оригинале : 23,976 (24000/1001) кадра/сек
Цветовое пространство : YUV
Субдискретизация насыщенности : 4:2:0 (Type 2)
Битовая глубина : 10 бит
Бит/(Пиксели*Кадры) : 0.324
Размер потока : 64,0 Гбайт (90%)
Заголовок : The.Great.Gatsby.2013.2160p.BluRay.REMUX.HEVC.HDR
Default : Да
Forced : Нет
Цветовой диапазон : Limited
Основные цвета : BT.2020
Характеристики трансфера : PQ
Коэффициенты матрицы : BT.2020 non-constant
MasteringDisplay_ColorPrimaries : Display P3
MasteringDisplay_Luminance : min: 0.0050 cd/m2, max: 4000 cd/m2
MaxCLL : 1124 cd/m2
MaxFALL : 755 cd/m2

Аудио #1
Идентификатор : 2
Формат : AC-3
Формат/Информация : Audio Coding 3
Идентификатор кодека : A_AC3
Продолжительность : 2 ч. 22 м.
Вид битрейта : Постоянный
Битрейт : 448 Кбит/сек
Каналы : 6 каналов
Расположение каналов : Front: L C R, Side: L R, LFE
Частота : 48,0 КГц
Частота кадров : 31,250 кадров/сек (1536 SPF)
Битовая глубина : 16 бит
Метод сжатия : С потерями
Размер потока : 455 Мбайт (1%)
Заголовок : Дублированный, Blu-ray 4k
Язык : Russian
ServiceKind/String : Complete Main
Default : Да
Forced : Нет

Аудио #2
Идентификатор : 3
Формат : AC-3
Формат/Информация : Audio Coding 3
Идентификатор кодека : A_AC3
Продолжительность : 2 ч. 22 м.
Вид битрейта : Постоянный
Битрейт : 448 Кбит/сек
Каналы : 6 каналов
Расположение каналов : Front: L C R, Side: L R, LFE
Частота : 48,0 КГц
Частота кадров : 31,250 кадров/сек (1536 SPF)
Битовая глубина : 16 бит
Метод сжатия : С потерями
Размер потока : 455 Мбайт (1%)
Заголовок : Дублированный, Blu-ray CEE
Язык : Ukrainian
ServiceKind/String : Complete Main
Default : Нет
Forced : Нет

Аудио #3
Идентификатор : 4
Формат : AC-3
Формат/Информация : Audio Coding 3
Идентификатор кодека : A_AC3
Продолжительность : 2 ч. 22 м.
Вид битрейта : Постоянный
Битрейт : 640 Кбит/сек
Каналы : 6 каналов
Расположение каналов : Front: L C R, Side: L R, LFE
Частота : 48,0 КГц
Частота кадров : 31,250 кадров/сек (1536 SPF)
Битовая глубина : 16 бит
Метод сжатия : С потерями
Размер потока : 651 Мбайт (1%)
Заголовок : Авторский, Юрий Сербин
Язык : Russian
ServiceKind/String : Complete Main
Default : Нет
Forced : Нет

Аудио #4
Идентификатор : 5
Формат : DTS
Формат/Информация : Digital Theater Systems
Профиль формата : MA / Core
Идентификатор кодека : A_DTS
Продолжительность : 2 ч. 22 м.
Вид битрейта : Переменный / Постоянный
Битрейт : 2194 Кбит/сек / 1509 Кбит/сек
Каналы : 6 каналов
Расположение каналов : Front: L C R, Side: L R, LFE
Частота : 48,0 КГц
Частота кадров : 93,750 кадра/сек (512 SPF)
Битовая глубина : 16 бит
Метод сжатия : Без потерь / Lossy
Размер потока : 2,18 Гбайт (3%)
Заголовок : Авторский, Юрий Сербин
Язык : Russian
Default : Нет
Forced : Нет

Аудио #5
Идентификатор : 6
Формат : DTS
Формат/Информация : Digital Theater Systems
Профиль формата : MA / Core
Идентификатор кодека : A_DTS
Продолжительность : 2 ч. 22 м.
Вид битрейта : Переменный / Постоянный
Битрейт : 2183 Кбит/сек / 1509 Кбит/сек
Каналы : 6 каналов
Расположение каналов : Front: L C R, Side: L R, LFE
Частота : 48,0 КГц
Частота кадров : 93,750 кадра/сек (512 SPF)
Битовая глубина : 16 бит
Метод сжатия : Без потерь / Lossy
Размер потока : 2,17 Гбайт (3%)
Заголовок : Original
Язык : English
Default : Нет
Forced : Нет

Аудио #6
Идентификатор : 7
Формат : AC-3
Формат/Информация : Audio Coding 3
Идентификатор кодека : A_AC3
Продолжительность : 2 ч. 22 м.
Вид битрейта : Постоянный
Битрейт : 640 Кбит/сек
Каналы : 6 каналов
Расположение каналов : Front: L C R, Side: L R, LFE
Частота : 48,0 КГц
Частота кадров : 31,250 кадров/сек (1536 SPF)
Битовая глубина : 16 бит
Метод сжатия : С потерями
Размер потока : 651 Мбайт (1%)
Заголовок : English
Язык : English
ServiceKind/String : Complete Main
Default : Нет
Forced : Нет

Аудио #7
Идентификатор : 8
Формат : AC-3
Формат/Информация : Audio Coding 3
Идентификатор кодека : A_AC3
Продолжительность : 2 ч. 22 м.
Вид битрейта : Постоянный
Битрейт : 448 Кбит/сек
Каналы : 6 каналов
Расположение каналов : Front: L C R, Side: L R, LFE
Частота : 48,0 КГц
Частота кадров : 31,250 кадров/сек (1536 SPF)
Битовая глубина : 16 бит
Метод сжатия : С потерями
Размер потока : 455 Мбайт (1%)
Заголовок : Audiodescription
Язык : English
ServiceKind/String : Complete Main
Default : Нет
Forced : Нет

Текст #1
Идентификатор : 9
Формат : UTF-8
Идентификатор кодека : S_TEXT/UTF8
Идентификатор кодека/Информация : UTF-8 Plain Text
Продолжительность : 2 ч. 7 м.
Битрейт : 1 бит/сек
ElementCount : 22
Размер потока : 970 байт (0%)
Заголовок : Forced
Язык : Russian
Default : Да
Forced : Да

Текст #2
Идентификатор : 10
Формат : UTF-8
Идентификатор кодека : S_TEXT/UTF8
Идентификатор кодека/Информация : UTF-8 Plain Text
Продолжительность : 2 ч. 7 м.
Битрейт : 107 бит/сек
ElementCount : 2236
Размер потока : 101 Кбайт (0%)
Язык : Russian
Default : Нет
Forced : Нет

Текст #3
Идентификатор : 11
Формат : UTF-8
Идентификатор кодека : S_TEXT/UTF8
Идентификатор кодека/Информация : UTF-8 Plain Text
Продолжительность : 2 ч. 8 м.
Битрейт : 102 бит/сек
ElementCount : 1575
Размер потока : 96,9 Кбайт (0%)
Заголовок : voronine
Язык : Russian
Default : Нет
Forced : Нет

Текст #4
Идентификатор : 12
Формат : UTF-8
Идентификатор кодека : S_TEXT/UTF8
Идентификатор кодека/Информация : UTF-8 Plain Text
Продолжительность : 2 ч. 7 м.
Битрейт : 1 бит/сек
ElementCount : 28
Размер потока : 1,28 Кбайт (0%)
Заголовок : Forced
Язык : Ukrainian
Default : Нет
Forced : Да

Текст #5
Идентификатор : 13
Формат : UTF-8
Идентификатор кодека : S_TEXT/UTF8
Идентификатор кодека/Информация : UTF-8 Plain Text
Продолжительность : 2 ч. 7 м.
Битрейт : 107 бит/сек
ElementCount : 2217
Размер потока : 101 Кбайт (0%)
Язык : Ukrainian
Default : Нет
Forced : Нет

Текст #6
Идентификатор : 14
Формат : UTF-8
Идентификатор кодека : S_TEXT/UTF8
Идентификатор кодека/Информация : UTF-8 Plain Text
Продолжительность : 2 ч. 7 м.
Битрейт : 69 бит/сек
ElementCount : 2246
Размер потока : 65,1 Кбайт (0%)
Язык : English
Default : Нет
Forced : Нет

Текст #7
Идентификатор : 15
Формат : UTF-8
Идентификатор кодека : S_TEXT/UTF8
Идентификатор кодека/Информация : UTF-8 Plain Text
Продолжительность : 2 ч. 20 м.
Битрейт : 67 бит/сек
ElementCount : 2321
Размер потока : 69,3 Кбайт (0%)
Заголовок : SDH
Язык : English
Default : Нет
Forced : Нет

Текст #8
Идентификатор : 16
Формат : UTF-8
Идентификатор кодека : S_TEXT/UTF8
Идентификатор кодека/Информация : UTF-8 Plain Text
Продолжительность : 2 ч. 20 м.
Битрейт : 80 бит/сек
ElementCount : 2321
Размер потока : 83,2 Кбайт (0%)
Заголовок : SDH-COLORED
Язык : English
Default : Нет
Forced : Нет

Меню
00:00:00.000 : en:The East Egg
00:11:04.080 : en:Myrtle Wilson
00:22:55.832 : en:Invitation
00:34:26.898 : en:Lunch With Gatsby
00:44:48.727 : en:Reacquainted
00:55:36.332 : en:Rich and Poor
01:06:20.643 : en:A Party for Daisy
01:18:27.786 : en:Lovers
01:31:13.926 : en:Going Into Town
01:44:11.954 : en:Confronting Tom
01:56:35.154 : en:Trouble on the Road
02:05:46.121 : en:The Driver
02:09:40.981 : en:Revenge



Скачать Великий Гэтсби через торрент http://i100.fastpic.ru/big/2018/0124/d7/5002b4944e9a7a04cf34da523c8e14d7.png Скачать, смотреть онлайн Великий Гэтсби бесплантно в хорошем качестве Описание: 1920-е годы. Нью-Йорк. На побережье Лонг-Айленда среди шикарных резиденций богатейших людей Америки затерялся маленький домик, ... 10 10 4
Торрент: Зарегистрирован [2018-01-24 18:30] · скачан: 49 раз
Статус: √ проверено
Размер: 70.92 GB
Как cкачать? Как скачать Великий Гэтсби через торрент | UTorrent

% Раздел Тема Автор DL S | L
Ultra HD (UHD: 2K, 4K, 8K) [ 63.91 GB ] Великий Гэтсби / The Great Gatsby | DUB + AVO | 2160p sheker187 Скачать
1 | 0
Фильмы [HD 720p, 1080p] (Хороший звук DUB, MVO) [ 7.76 GB ] Великий Гэтсби / The Great Gatsby | DUB | 720p от _denis_100 / NNNB _denis_100 Скачать
1 | 0

28-11-2019 20:33  


Отключить вcю реклaмy на сайте, в т.ч. и в плеере онлайн просмотра!

    Дорогой пользователь! Огромная просьба, поблагодарите релизера, оцените раздачу и оставьте свои комментарий, если Вы скачали Великий Гэтсби через торрент бесплатно!!
    Комментировать посты могут только пользователи прошедшие не сложную регистрацию
    Показать сообщения:    


    Великий Гэтсби через торрент
    Скачать бесплатно Великий Гэтсби
    Великий Гэтсби скачать торрент
    Великий Гэтсби смотреть онлайн
    Cкачать фильм Великий Гэтсби бесплатно
    Великий Гэтсби скачать торрент в хорошем качестве
    Великий Гэтсби смотреть онлайн бесплатно в хорошем качестве
    Вы не можете начинать темы
    Вы не можете отвечать на сообщения
    Вы не можете редактировать свои сообщения
    Вы не можете удалять свои сообщения
    Вы не можете голосовать в опросах
    Вы не можете прикреплять файлы к сообщениям
    Вы можете скачивать файлы
    Великий Гэтсби / The Great Gatsby [2013, Драма, мелодрама, UHD BD Remux 2160p] Дубляж [rus, ukr] + AVO смотреть онлайн, скачать торрент picoco.icu