Достать ножи: Стеклянная луковица

MVO

Добыча

Дубляж

Уэнсдэй

1 сезон

Тор

Дубляж

13 клиническая

1 сезон

Жестокая ночь

MVO

Одни из нас

1 сезон

Deluxe

pack

Рекомендуем

30

Пиратка

ВАЖНО

ВАЖНО

Ghostwire

Пиратка

jed

RePack

nioh2

RePack

RDR2

RePack

NEED FOR SPEED™ PAYBACK

RePack

скачать торрент

Кинопоиск HD

Острые козырьки 6 сезон

6 сезон

FAR CRY 6

RePack

скачать торрент

Лицензия

скачать торрент

MVO

1

1 сезон

скачать торрент

1 сезон

скачать торрент

Лицензия

  

Линкольн для адвоката / The Lincoln Lawyer (Брэд Фурман) [2011, триллер, драма, криминал, UHD BD Remux 2160p] Дубляж [rus, ukr] + 2xAVO

Линкольн для адвоката через торрент 5050.piratbit.fun

Размер: 66.44 GB | Добавлен: 5 лет назад | Торрент скачан:39 раз
Смотреть онлайн | Скачать | Поддержите нас   

25-01-2018 04:20 Линкольн для адвоката Скачать торрент  

Линкольн для адвоката / The Lincoln Lawyer

Год выпуска: 2011
Страна: США
Жанр: триллер, драма, криминал
Продолжительность: 01:58:28
Перевод: Дублированный, авторский
Субтитры: Русские (Full, Матвеев), английские (Full), украинские (Full)
Режиссер: Брэд Фурман
В ролях:

Мэттью МакКонахи (Mick Haller), Мариса Томей (Maggie McPherson), Райан Филипп (Louis Roulet), Уильям Х. Мэйси (Frank Levin), Джош Лукас (Ted Minton), Джон Легуизамо (Val Valenzuela), Майкл Пенья (Jesus Martinez), Боб Гантон (Cecil Dobbs), Фрэнсис Фишер (Mary Windsor), Брайан Крэнстон (Detective Lankford), Трэйси Д. Эдкинс (Eddie Vogel), Лоуренс Мэйсон (Earl)
Описание:
Микки Холлер - блестящий и удачливый адвокат из Лос-Анджелеса, чей яркий имидж и образ жизни отлично дополняет его любимая машина «Линкольн». Очередное дело - нападение богатого клиента Луи Руле на проститутку сначала казалось легким, и он без труда добился оправдательного приговора для подзащитного. Но вскоре Микки понимает, что его клиент скрывает правду. Пока Холлер пытается вывести Руле на чистую воду, его подставляют по-крупному, и теперь уже угроза тюремного заключения нависает над самим Холлером.
Рейтинг:

MPAA: R - Лицам до 17 лет обязательно присутствие взрослого
Качество: UHD BD Remux 2160p
Формат: MKV
Видео: HEVC, 53.4 Мбит/с, 3840x2160, 23.976 Кадр/с
Аудио 1: Russian: 48 kHz/16-bit, DTS-HD 5.1, 1509 kbps avg | Дублированный, DTS |
Аудио 2: Russian: 48 kHz/16-bit, DTS-HD MA 7.1, 2148 kbps avg | Дублированный, DTS-HD MA |
Аудио 3: Ukrainian: 48 kHz/24-bit, DTS-HD 5.1, 1510 kbps avg | Дублированный, UKR |
Аудио 4: Russian: 48 kHz/24-bit, DTS-HD 5.1, 1509 kbps avg | Одноголосый закадровый, А.Матвеев (Doctor Joker) |
Аудио 5: Russian: 48 kHz/24-bit, DTS-HD MA 7.1, 4239 kbps avg | Одноголосый закадровый, А.Матвеев (Doctor Joker) |
Аудио 6: Russian: 48 kHz/24-bit, DTS-HD 5.1, 1509 kbps avg | Одноголосый закадровый, А.Гаврилов |
Аудио 7: Russian: 48 kHz/24-bit, DTS-HD MA 7.1, 4216.00 kbps avg |Одноголосый закадровый, А.Гаврилов|
Аудио 8: English: 48 kHz/24-bit, DTS-HD 5.1, 1509 kbps avg
Аудио 9: English: 48 kHz/24-bit, DTS-HD MA 7.1, 4219.00 kbps avg
Аудио 10: English: 48 kHz/24-bit, TrueHD Atmos 7.1, 3832 kbps avg | Original TrueHD Atmos |
Аудио 11: English: 48 kHz/16-bit, AC-3 5.1, 640 kbps avg | Original AC3 CORE |
Навигация по главам: есть
Видео
Идентификатор : 1
Формат : HEVC
Формат/Информация : High Efficiency Video Coding
Профиль формата : Main [email protected]@High
Идентификатор кодека : V_MPEGH/ISO/HEVC
Продолжительность : 1 ч. 58 м.
Битрейт : 53,4 Мбит/сек
Ширина : 3840 пикселей
Высота : 2160 пикселей
Соотношение сторон : 16:9
Режим частоты кадров : Постоянный
Частота кадров : 23,976 (24000/1001) кадра/сек
Цветовое пространство : YUV
Субдискретизация насыщенности : 4:2:0 (Type 2)
Битовая глубина : 10 бит
Бит/(Пиксели*Кадры) : 0.268
Размер потока : 44,2 Гбайт (66%)
Заголовок : The.Lincoln.Lawyer.2011.2160p.BluRay.REMUX.HEVC.HDR
Библиотека кодирования : ATEME Titan File 3.7.9 (4.7.9.0)
Default : Да
Forced : Нет
Цветовой диапазон : Limited
Основные цвета : BT.2020
Характеристики трансфера : PQ
Коэффициенты матрицы : BT.2020 non-constant
MasteringDisplay_ColorPrimaries : Display P3
MasteringDisplay_Luminance : min: 0.0000 cd/m2, max: 1000 cd/m2
MaxCLL : 967 cd/m2
MaxFALL : 358 cd/m2

Аудио #1
Идентификатор : 2
Формат : DTS
Формат/Информация : Digital Theater Systems
Идентификатор кодека : A_DTS
Продолжительность : 1 ч. 58 м.
Вид битрейта : Постоянный
Битрейт : 1509 Кбит/сек
Каналы : 6 каналов
Расположение каналов : Front: L C R, Side: L R, LFE
Частота : 48,0 КГц
Частота кадров : 93,750 кадра/сек (512 SPF)
Битовая глубина : 16 бит
Метод сжатия : С потерями
Размер потока : 1,25 Гбайт (2%)
Заголовок : | Дублированный, DTS |
Язык : Russian
Default : Да
Forced : Нет

Аудио #2
Идентификатор : 3
Формат : DTS
Формат/Информация : Digital Theater Systems
Профиль формата : MA / Core
Идентификатор кодека : A_DTS
Продолжительность : 1 ч. 58 м.
Вид битрейта : Переменный / Постоянный
Битрейт : 2148 Кбит/сек / 1509 Кбит/сек
Каналы : 8 каналов / 6 каналов
Расположение каналов : Front: L C R, Side: L R, Back: L R, LFE / Front: L C R, Side: L R, LFE
Частота : 48,0 КГц
Частота кадров : 93,750 кадра/сек (512 SPF)
Битовая глубина : 16 бит
Метод сжатия : Без потерь / Lossy
Размер потока : 1,78 Гбайт (3%)
Заголовок : | Дублированный, DTS-HD MA |
Язык : Russian
Default : Нет
Forced : Нет

Аудио #3
Идентификатор : 4
Формат : DTS
Формат/Информация : Digital Theater Systems
Идентификатор кодека : A_DTS
Продолжительность : 1 ч. 58 м.
Вид битрейта : Постоянный
Битрейт : 1510 Кбит/сек
Каналы : 6 каналов
Расположение каналов : Front: L C R, Side: L R, LFE
Частота : 48,0 КГц
Частота кадров : 93,750 кадра/сек (512 SPF)
Битовая глубина : 24 бит
Метод сжатия : С потерями
Размер потока : 1,25 Гбайт (2%)
Заголовок : | Дублированный, UKR |
Язык : Ukrainian
Default : Нет
Forced : Нет

Аудио #4
Идентификатор : 5
Формат : DTS
Формат/Информация : Digital Theater Systems
Идентификатор кодека : A_DTS
Продолжительность : 1 ч. 58 м.
Вид битрейта : Постоянный
Битрейт : 1509 Кбит/сек
Каналы : 6 каналов
Расположение каналов : Front: L C R, Side: L R, LFE
Частота : 48,0 КГц
Частота кадров : 93,750 кадра/сек (512 SPF)
Битовая глубина : 24 бит
Метод сжатия : С потерями
Размер потока : 1,25 Гбайт (2%)
Заголовок : | Одноголосый закадровый, А.Матвеев (Doctor Joker) |
Язык : Russian
Default : Нет
Forced : Нет

Аудио #5
Идентификатор : 6
Формат : DTS
Формат/Информация : Digital Theater Systems
Профиль формата : MA / Core
Идентификатор кодека : A_DTS
Продолжительность : 1 ч. 58 м.
Вид битрейта : Переменный / Постоянный
Битрейт : 4239 Кбит/сек / 1509 Кбит/сек
Каналы : 8 каналов / 6 каналов
Расположение каналов : Front: L C R, Side: L R, Back: L R, LFE / Front: L C R, Side: L R, LFE
Частота : 48,0 КГц
Частота кадров : 93,750 кадра/сек (512 SPF)
Битовая глубина : 24 бит
Метод сжатия : Без потерь / Lossy
Размер потока : 3,51 Гбайт (5%)
Заголовок : | Одноголосый закадровый, А.Матвеев (Doctor Joker) |
Язык : Russian
Default : Нет
Forced : Нет

Аудио #6
Идентификатор : 7
Формат : DTS
Формат/Информация : Digital Theater Systems
Идентификатор кодека : A_DTS
Продолжительность : 1 ч. 58 м.
Вид битрейта : Постоянный
Битрейт : 1509 Кбит/сек
Каналы : 6 каналов
Расположение каналов : Front: L C R, Side: L R, LFE
Частота : 48,0 КГц
Частота кадров : 93,750 кадра/сек (512 SPF)
Битовая глубина : 24 бит
Метод сжатия : С потерями
Размер потока : 1,25 Гбайт (2%)
Заголовок : | Одноголосый закадровый, А.Гаврилов |
Язык : Russian
Default : Нет
Forced : Нет

Аудио #7
Идентификатор : 8
Формат : DTS
Формат/Информация : Digital Theater Systems
Профиль формата : MA / Core
Идентификатор кодека : A_DTS
Продолжительность : 1 ч. 58 м.
Вид битрейта : Переменный / Постоянный
Битрейт : 4216 Кбит/сек / 1509 Кбит/сек
Каналы : 8 каналов / 6 каналов
Расположение каналов : Front: L C R, Side: L R, Back: L R, LFE / Front: L C R, Side: L R, LFE
Частота : 48,0 КГц
Частота кадров : 93,750 кадра/сек (512 SPF)
Битовая глубина : 24 бит
Метод сжатия : Без потерь / Lossy
Размер потока : 3,49 Гбайт (5%)
Заголовок : | Одноголосый закадровый, А.Гаврилов |
Язык : Russian
Default : Нет
Forced : Нет

Аудио #8
Идентификатор : 9
Формат : DTS
Формат/Информация : Digital Theater Systems
Идентификатор кодека : A_DTS
Продолжительность : 1 ч. 58 м.
Вид битрейта : Постоянный
Битрейт : 1509 Кбит/сек
Каналы : 6 каналов
Расположение каналов : Front: L C R, Side: L R, LFE
Частота : 48,0 КГц
Частота кадров : 93,750 кадра/сек (512 SPF)
Битовая глубина : 24 бит
Метод сжатия : С потерями
Размер потока : 1,25 Гбайт (2%)
Заголовок : | English |
Язык : English
Default : Нет
Forced : Нет

Аудио #9
Идентификатор : 10
Формат : DTS
Формат/Информация : Digital Theater Systems
Профиль формата : MA / Core
Идентификатор кодека : A_DTS
Продолжительность : 1 ч. 58 м.
Вид битрейта : Переменный / Постоянный
Битрейт : 4219 Кбит/сек / 1509 Кбит/сек
Каналы : 8 каналов / 6 каналов
Расположение каналов : Front: L C R, Side: L R, Back: L R, LFE / Front: L C R, Side: L R, LFE
Частота : 48,0 КГц
Частота кадров : 93,750 кадра/сек (512 SPF)
Битовая глубина : 24 бит
Метод сжатия : Без потерь / Lossy
Размер потока : 3,49 Гбайт (5%)
Заголовок : | English |
Язык : English
Default : Нет
Forced : Нет

Аудио #10
Идентификатор : 11
Формат : TrueHD
Профиль формата : TrueHD+Atmos / TrueHD
Идентификатор кодека : A_TRUEHD
Продолжительность : 1 ч. 58 м.
Вид битрейта : Переменный
Битрейт : 3832 Кбит/сек
Максимальный битрейт : 6984 Кбит/сек
Каналы : Object Based / 8 каналов
Расположение каналов : Object Based / Front: L C R, Side: L R, Back: L R, LFE
Частота : / 48,0 КГц
Частота кадров : 1200,000 кадров/сек (40 SPF)
Метод сжатия : Без потерь
Размер потока : 3,17 Гбайт (5%)
Заголовок : | Original TrueHD Atmos|
Язык : English
Default : Нет
Forced : Нет

Аудио #11
Идентификатор : 12
Формат : AC-3
Формат/Информация : Audio Coding 3
Идентификатор кодека : A_AC3
Продолжительность : 1 ч. 58 м.
Вид битрейта : Постоянный
Битрейт : 640 Кбит/сек
Каналы : 6 каналов
Расположение каналов : Front: L C R, Side: L R, LFE
Частота : 48,0 КГц
Частота кадров : 31,250 кадров/сек (1536 SPF)
Битовая глубина : 16 бит
Метод сжатия : С потерями
Размер потока : 542 Мбайт (1%)
Заголовок : | Original AC3 CORE|
Язык : English
ServiceKind/String : Complete Main
Default : Нет
Forced : Нет

Текст #1
Идентификатор : 13
Формат : UTF-8
Идентификатор кодека : S_TEXT/UTF8
Идентификатор кодека/Информация : UTF-8 Plain Text
Продолжительность : 1 ч. 50 м.
Битрейт : 131 бит/сек
ElementCount : 1956
Размер потока : 106 Кбайт (0%)
Заголовок : Full
Язык : Russian
Default : Нет
Forced : Нет

Текст #2
Идентификатор : 14
Формат : UTF-8
Идентификатор кодека : S_TEXT/UTF8
Идентификатор кодека/Информация : UTF-8 Plain Text
Продолжительность : 1 ч. 51 м.
Битрейт : 144 бит/сек
ElementCount : 1493
Размер потока : 118 Кбайт (0%)
Заголовок : Матвеев
Язык : Russian
Default : Нет
Forced : Нет

Текст #3
Идентификатор : 15
Формат : UTF-8
Идентификатор кодека : S_TEXT/UTF8
Идентификатор кодека/Информация : UTF-8 Plain Text
Продолжительность : 1 ч. 51 м.
Битрейт : 129 бит/сек
ElementCount : 1956
Размер потока : 106 Кбайт (0%)
Заголовок : Full
Язык : Ukrainian
Default : Нет
Forced : Нет

Текст #4
Идентификатор : 16
Формат : UTF-8
Идентификатор кодека : S_TEXT/UTF8
Идентификатор кодека/Информация : UTF-8 Plain Text
Продолжительность : 1 ч. 50 м.
Битрейт : 86 бит/сек
ElementCount : 1494
Размер потока : 70,2 Кбайт (0%)
Заголовок : Full
Язык : English
Default : Нет
Forced : Нет

Меню
00:00:00.000 : en:Something Big
00:05:07.015 : en:Get Paid
00:16:50.051 : en:Something New
00:20:06.205 : en:What Happened?
00:30:21.987 : en:Security Camera
00:38:23.343 : en:Catching Up
00:48:25.152 : en:Make It Right
00:55:07.221 : en:Dangerous Place
00:59:10.255 : en:Predator
01:03:16.626 : en:Break In The Case
01:09:03.931 : en:Defense Theory
01:15:28.858 : en:Witness Testimony
01:23:21.455 : en:Taking The Stand
01:29:44.045 : en:Snitch
01:37:34.140 : en:New Lawyer
01:50:00.344 : en:Repeat Customers



Скачать Линкольн для адвоката через торрент http://i99.fastpic.ru/big/2018/0125/ff/61878502bd7cc6ea52f3b1f1be5c8aff.png Скачать, смотреть онлайн Линкольн для адвоката бесплантно в хорошем качестве Описание: Микки Холлер - блестящий и удачливый адвокат из Лос-Анджелеса, чей яркий имидж и образ жизни отлично дополняет его любимая машина ... 10 10 3
Info! Золотая раздача, скачанное не засчитывается.
Торрент: Зарегистрирован [2018-01-25 04:20] · скачан: 39 раз
Статус: √ проверено
Размер: 66.44 GB
Как cкачать? Как скачать Линкольн для адвоката через торрент | UTorrent

28-11-2019 20:33  


Отключить вcю реклaмy на сайте, в т.ч. и в плеере онлайн просмотра!

    Дорогой пользователь! Огромная просьба, поблагодарите релизера, оцените раздачу и оставьте свои комментарий, если Вы скачали Линкольн для адвоката через торрент бесплатно!!
    Комментировать посты могут только пользователи прошедшие не сложную регистрацию
    Показать сообщения:    


    Линкольн для адвоката через торрент
    Скачать бесплатно Линкольн для адвоката
    Линкольн для адвоката скачать торрент
    Линкольн для адвоката смотреть онлайн
    Cкачать фильм Линкольн для адвоката бесплатно
    Линкольн для адвоката скачать торрент в хорошем качестве
    Линкольн для адвоката смотреть онлайн бесплатно в хорошем качестве
    Вы не можете начинать темы
    Вы не можете отвечать на сообщения
    Вы не можете редактировать свои сообщения
    Вы не можете удалять свои сообщения
    Вы не можете голосовать в опросах
    Вы не можете прикреплять файлы к сообщениям
    Вы можете скачивать файлы
    Линкольн для адвоката / The Lincoln Lawyer [2011, триллер, драма, криминал, UHD BD Remux 2160p] Дубляж [rus, ukr] + 2xAVO смотреть онлайн, скачать торрент picoco.icu