Достать ножи: Стеклянная луковица

MVO

Добыча

Дубляж

Уэнсдэй

1 сезон

Тор

Дубляж

13 клиническая

1 сезон

Жестокая ночь

MVO

Одни из нас

1 сезон

Deluxe

pack

Рекомендуем

30

Пиратка

ВАЖНО

ВАЖНО

Ghostwire

Пиратка

jed

RePack

nioh2

RePack

RDR2

RePack

NEED FOR SPEED™ PAYBACK

RePack

скачать торрент

Кинопоиск HD

Острые козырьки 6 сезон

6 сезон

FAR CRY 6

RePack

скачать торрент

Лицензия

скачать торрент

MVO

1

1 сезон

скачать торрент

1 сезон

скачать торрент

Лицензия

  

Морской бой / Battleship (Питер Берг) [2012, Фантастика, боевик, триллер, UHD BDRemux 2160p] 3xAVO+2xDUB (rus, ukr)

Морской бой через торрент 5050.piratbit.fun

Размер: 66.19 GB | Добавлен: 5 лет назад | Торрент скачан:168 раз
Смотреть онлайн | Скачать | Поддержите нас   

25-01-2018 06:04 Морской бой Скачать торрент  

Морской бой / Battleship«Битва за Землю начнётся на воде» Год выпуска: 2012
Страна: США
Жанр: Фантастика, боевик, триллер
Продолжительность: 02:11:15
Перевод: Дубляж, авторский
Субтитры: Русские, украинские (Forced, Full), английские (Full, SDH, SDH-Colored )

Режиссер: Питер Берг

rating

В ролях:

Тейлор Китч (Lieutenant Alex Hopper), Таданобу Асано (Captain Yugi Nagata), Бруклин Декер (Sam), Рианна (Petty Officer Cora «Weps» Raikes), Лиам Нисон (Admiral Shane), Александр Скарсгард (Commander Stone Hopper), Джесси Племонс (Boatswain Mate Seaman Jimmy «Ordy» Ord), Грегори Д. Гэдсон (Lieutenant Colonel Mick Canales), Хамиш Линклэйтер (Cal Zapata), Джон Туи (Chief Petty Officer Walter «The Beast» Lynch), Питер МакНикол (Secretary of Defense), Джерри Феррара (Sampson JOOD Strodell)
Описание:

Мы посылаем сигналы в космос и ждем ответа. Но уверены ли мы, что хотим его получить? Что если пришельцы потенциально опасны? В 2009 году на конференции в Вашингтоне астронавт Эдгар Митчелл, побывавший на Луне, сделал сенсационное заявление о существовании внеземной жизни. Теперь мы знаем, контакт не просто возможен, он неизбежен!

Качество:UHD BDRemux 2160p
Формат: MKV

Видео: MPEG-H HEVC HDR Video, 50.5 Мбит/с, 3840x2160, 23.976 Кадр/с
Аудио#1: Russian, DTS 48 kHz 6ch, 768 kbps - Дублированный (Blu-Ray CEE)
Аудио#2: Russian, DTS-HD MA 48 kHz 6ch, 4153 kbps - Дублированный
Аудио#3: Russian, DTS-HD MA 48 kHz 6ch, 3704 kbps - Авторский (Ю.Сербин)
Аудио#4: Russian, AC3 48 kHz 6ch, 448 kbps - Авторский (А.Гаврилов)
Audio#5: Russian, AC3 48 kHz 6ch, 640 kbps - Авторский (V.Zamez)
Audio#6: Ukrainian, AC3 48000Hz 6ch, 448 kbps - Дублированный (Line)
Audio#7: English, AC3 48000Hz 6ch, 640 kbps - Оригинал
Audio#8: English, DTS 48000Hz 6ch, 4172 kbps - Оригинал
Audio#9: English, DTS (X / MA / Core) 48000Hz 8ch, 6704 Кбит/сек / 6704 Кбит/сек / 1509 - Оригинал
скриншот  скриншот  скриншот  скриншот  скриншот  скриншот  

Видео
Идентификатор : 1
Формат : HEVC
Формат/Информация : High Efficiency Video Coding
Профиль формата : Main [email protected]@High
Идентификатор кодека : V_MPEGH/ISO/HEVC
Продолжительность : 2 ч. 11 м.
Битрейт : 50,5 Мбит/сек
Ширина : 3840 пикселей
Высота : 2160 пикселей
Соотношение сторон : 16:9
Режим частоты кадров : Постоянный
Частота кадров : 23,976 (24000/1001) кадра/сек
Цветовое пространство : YUV
Субдискретизация насыщенности : 4:2:0 (Type 2)
Битовая глубина : 10 бит
Бит/(Пиксели*Кадры) : 0.254
Размер потока : 46,3 Гбайт (70%)
Заголовок : Battleship.2012.2160p.BluRay.REMUX.HEVC.HDR
Библиотека кодирования : ATEME Titan KFE 3.7.3 (4.7.3.1003)
Default : Да
Forced : Нет
Цветовой диапазон : Limited
Основные цвета : BT.2020
Характеристики трансфера : PQ
Коэффициенты матрицы : BT.2020 non-constant
MasteringDisplay_ColorPrimaries : Display P3
MasteringDisplay_Luminance : min: 0.0050 cd/m2, max: 1000 cd/m2
MaxCLL : 972 cd/m2
MaxFALL : 338 cd/m2

Аудио #1
Идентификатор : 2
Формат : DTS
Формат/Информация : Digital Theater Systems
Идентификатор кодека : A_DTS
Продолжительность : 2 ч. 11 м.
Вид битрейта : Постоянный
Битрейт : 768 Кбит/сек
Каналы : 6 каналов
Расположение каналов : Front: L C R, Side: L R, LFE
Частота : 48,0 КГц
Частота кадров : 93,750 кадра/сек (512 SPF)
Битовая глубина : 24 бит
Метод сжатия : С потерями
Размер потока : 721 Мбайт (1%)
Заголовок : | Дублированный - Blu-Ray CEE |
Язык : Russian
Default : Да
Forced : Нет

Аудио #2
Идентификатор : 3
Формат : DTS
Формат/Информация : Digital Theater Systems
Профиль формата : MA / Core
Идентификатор кодека : A_DTS
Продолжительность : 2 ч. 11 м.
Вид битрейта : Переменный / Постоянный
Битрейт : 4153 Кбит/сек / 1509 Кбит/сек
Каналы : 6 каналов
Расположение каналов : Front: L C R, Side: L R, LFE
Частота : 48,0 КГц
Частота кадров : 93,750 кадра/сек (512 SPF)
Битовая глубина : 24 бит
Метод сжатия : Без потерь / Lossy
Размер потока : 3,81 Гбайт (6%)
Заголовок : | Дублированный DTS-HD MA |
Язык : Russian
Default : Нет
Forced : Нет

Аудио #3
Идентификатор : 4
Формат : DTS
Формат/Информация : Digital Theater Systems
Профиль формата : MA / Core
Идентификатор кодека : A_DTS
Продолжительность : 2 ч. 11 м.
Вид битрейта : Переменный / Постоянный
Битрейт : 3704 Кбит/сек / 1509 Кбит/сек
Каналы : 6 каналов
Расположение каналов : Front: L C R, Side: L R, LFE
Частота : 48,0 КГц
Частота кадров : 93,750 кадра/сек (512 SPF)
Битовая глубина : 24 бит
Метод сжатия : Без потерь / Lossy
Размер потока : 3,40 Гбайт (5%)
Заголовок : | Одноголосый закадровый, Ю.Сербин |
Язык : Russian
Default : Нет
Forced : Нет

Аудио #4
Идентификатор : 5
Формат : AC-3
Формат/Информация : Audio Coding 3
Идентификатор кодека : A_AC3
Продолжительность : 2 ч. 11 м.
Вид битрейта : Постоянный
Битрейт : 448 Кбит/сек
Каналы : 6 каналов
Расположение каналов : Front: L C R, Side: L R, LFE
Частота : 48,0 КГц
Частота кадров : 31,250 кадров/сек (1536 SPF)
Битовая глубина : 16 бит
Метод сжатия : С потерями
Размер потока : 421 Мбайт (1%)
Заголовок : | Одноголосый закадровый, А.Гаврилов |
Язык : Russian
ServiceKind/String : Complete Main
Default : Нет
Forced : Нет

Аудио #5
Идентификатор : 6
Формат : AC-3
Формат/Информация : Audio Coding 3
Идентификатор кодека : A_AC3
Продолжительность : 2 ч. 11 м.
Вид битрейта : Постоянный
Битрейт : 640 Кбит/сек
Каналы : 6 каналов
Расположение каналов : Front: L C R, Side: L R, LFE
Частота : 48,0 КГц
Частота кадров : 31,250 кадров/сек (1536 SPF)
Битовая глубина : 16 бит
Метод сжатия : С потерями
Размер потока : 601 Мбайт (1%)
Заголовок : | Одноголосый закадровый, V.Zamez |
Язык : Russian
ServiceKind/String : Complete Main
Default : Нет
Forced : Нет

Аудио #6
Идентификатор : 7
Формат : AC-3
Формат/Информация : Audio Coding 3
Идентификатор кодека : A_AC3
Продолжительность : 2 ч. 11 м.
Вид битрейта : Постоянный
Битрейт : 448 Кбит/сек
Каналы : 6 каналов
Расположение каналов : Front: L C R, Side: L R, LFE
Частота : 48,0 КГц
Частота кадров : 31,250 кадров/сек (1536 SPF)
Битовая глубина : 16 бит
Метод сжатия : С потерями
Размер потока : 421 Мбайт (1%)
Заголовок : | Дублированный - Line |
Язык : Ukrainian
ServiceKind/String : Complete Main
Default : Нет
Forced : Нет

Аудио #7
Идентификатор : 8
Формат : AC-3
Формат/Информация : Audio Coding 3
Идентификатор кодека : A_AC3
Продолжительность : 2 ч. 11 м.
Вид битрейта : Постоянный
Битрейт : 640 Кбит/сек
Каналы : 6 каналов
Расположение каналов : Front: L C R, Side: L R, LFE
Частота : 48,0 КГц
Частота кадров : 31,250 кадров/сек (1536 SPF)
Битовая глубина : 16 бит
Метод сжатия : С потерями
Размер потока : 601 Мбайт (1%)
Заголовок : English 6 ch
Язык : English
ServiceKind/String : Complete Main
Default : Нет
Forced : Нет

Аудио #8
Идентификатор : 9
Формат : DTS
Формат/Информация : Digital Theater Systems
Профиль формата : MA / Core
Идентификатор кодека : A_DTS
Продолжительность : 2 ч. 11 м.
Вид битрейта : Переменный / Постоянный
Битрейт : 4172 Кбит/сек / 1509 Кбит/сек
Каналы : 6 каналов
Расположение каналов : Front: L C R, Side: L R, LFE
Частота : 48,0 КГц
Частота кадров : 93,750 кадра/сек (512 SPF)
Битовая глубина : 24 бит
Метод сжатия : Без потерь / Lossy
Размер потока : 3,83 Гбайт (6%)
Заголовок : English 6 ch
Язык : English
Default : Нет
Forced : Нет

Аудио #9
Идентификатор : 10
Формат : DTS
Формат/Информация : Digital Theater Systems
Профиль формата : X / MA / Core
Идентификатор кодека : A_DTS
Продолжительность : 2 ч. 11 м.
Вид битрейта : Переменный / Переменный / Постоянный
Битрейт : 6704 Кбит/сек / 6704 Кбит/сек / 1509 Кбит/сек
Каналы : Object Based / 8 каналов / 6 каналов
Расположение каналов : Object Based / Front: L C R, Side: L R, Back: L R, LFE / Front: L C R, Side: L R, LFE
Частота : / 48,0 КГц / 48,0 КГц
Частота кадров : 93,750 кадра/сек (512 SPF)
Битовая глубина : / 24 бит / 24 бит
Метод сжатия : / Lossless / Lossy
Размер потока : 6,15 Гбайт (9%)
Заголовок : Original 8 ch
Язык : English
Default : Нет
Forced : Нет

Текст #1
Идентификатор : 11
Формат : UTF-8
Идентификатор кодека : S_TEXT/UTF8
Идентификатор кодека/Информация : UTF-8 Plain Text
Продолжительность : 2 ч. 10 м.
Битрейт : 1 бит/сек
ElementCount : 33
Размер потока : 1,65 Кбайт (0%)
Заголовок : Forced
Язык : Russian
Default : Да
Forced : Да

Текст #2
Идентификатор : 12
Формат : UTF-8
Идентификатор кодека : S_TEXT/UTF8
Идентификатор кодека/Информация : UTF-8 Plain Text
Продолжительность : 2 ч. 9 м.
Битрейт : 72 бит/сек
ElementCount : 1367
Размер потока : 69,1 Кбайт (0%)
Заголовок : Full
Язык : Russian
Default : Нет
Forced : Нет

Текст #3
Идентификатор : 13
Формат : UTF-8
Идентификатор кодека : S_TEXT/UTF8
Идентификатор кодека/Информация : UTF-8 Plain Text
Продолжительность : 2 ч. 9 м.
Битрейт : 77 бит/сек
ElementCount : 1117
Размер потока : 74,1 Кбайт (0%)
Заголовок : Voronine
Язык : Russian
Default : Нет
Forced : Нет

Текст #4
Идентификатор : 14
Формат : UTF-8
Идентификатор кодека : S_TEXT/UTF8
Идентификатор кодека/Информация : UTF-8 Plain Text
Продолжительность : 2 ч. 8 м.
Битрейт : 1 бит/сек
ElementCount : 33
Размер потока : 1,71 Кбайт (0%)
Заголовок : Forced
Язык : Ukrainian
Default : Нет
Forced : Да

Текст #5
Идентификатор : 15
Формат : UTF-8
Идентификатор кодека : S_TEXT/UTF8
Идентификатор кодека/Информация : UTF-8 Plain Text
Продолжительность : 2 ч. 9 м.
Битрейт : 74 бит/сек
ElementCount : 1368
Размер потока : 70,7 Кбайт (0%)
Заголовок : Full
Язык : Ukrainian
Default : Нет
Forced : Нет

Текст #6
Идентификатор : 16
Формат : UTF-8
Идентификатор кодека : S_TEXT/UTF8
Идентификатор кодека/Информация : UTF-8 Plain Text
Продолжительность : 2 ч. 9 м.
Битрейт : 47 бит/сек
ElementCount : 1386
Размер потока : 44,7 Кбайт (0%)
Заголовок : Full
Язык : English
Default : Нет
Forced : Нет

Текст #7
Идентификатор : 17
Формат : UTF-8
Идентификатор кодека : S_TEXT/UTF8
Идентификатор кодека/Информация : UTF-8 Plain Text
Продолжительность : 2 ч. 9 м.
Битрейт : 50 бит/сек
ElementCount : 1489
Размер потока : 47,7 Кбайт (0%)
Заголовок : SDH
Язык : English
Default : Нет
Forced : Нет

Текст #8
Идентификатор : 18
Формат : UTF-8
Идентификатор кодека : S_TEXT/UTF8
Идентификатор кодека/Информация : UTF-8 Plain Text
Продолжительность : 2 ч. 9 м.
Битрейт : 58 бит/сек
ElementCount : 1489
Размер потока : 55,7 Кбайт (0%)
Заголовок : SDH-Colored
Язык : English
Default : Нет
Forced : Нет

Меню
00:00:00.000 : en:Chapter 1
00:09:24.105 : en:Chapter 2
00:15:04.320 : en:Chapter 3
00:23:08.678 : en:Chapter 4
00:29:44.032 : en:Chapter 5
00:36:26.809 : en:Chapter 6
00:42:01.268 : en:Chapter 7
00:49:09.655 : en:Chapter 8
00:56:08.323 : en:Chapter 9
01:00:02.223 : en:Chapter 10
01:09:50.519 : en:Chapter 11
01:15:26.730 : en:Chapter 12
01:20:56.935 : en:Chapter 13
01:29:47.423 : en:Chapter 14
01:37:14.411 : en:Chapter 15
01:43:32.247 : en:Chapter 16
01:49:38.572 : en:Chapter 17
01:56:20.682 : en:Chapter 18
02:00:41.359 : en:Chapter 19
02:09:33.974 : en:Chapter 20




Скачать Морской бой через торрент http://img12.lostpic.net/2018/01/25/debacebff6f2ea8e84b7c99414e4a4de.jpg Скачать, смотреть онлайн Морской бой бесплантно в хорошем качестве Описание: Мы посылаем сигналы в космос и ждем ответа. Но уверены ли мы, что хотим его получить? Что если пришельцы потенциально опасны? В ... 10 10 8
Info! Золотая раздача, скачанное не засчитывается.
Торрент: Зарегистрирован [2018-01-25 06:04] · скачан: 168 раз
Статус: √ проверено
Размер: 66.19 GB
Как cкачать? Как скачать Морской бой через торрент | UTorrent

% Раздел Тема Автор DL S | L
Ultra HD (UHD: 2K, 4K, 8K) [ 72.41 GB ] Морской бой / Battleship | DUB | 2160p sheker187 Скачать
1 | 0
Фильмы (Blu-ray, BD-Remux, HDDVD) [ 36.78 GB ] Морской бой / Battleship | DUB + 2xAVO | 1080p sheker187 Скачать
1 | 0
Фильмы [HD 720p, 1080p] (Хороший звук DUB, MVO) [ 6.5 GB ] Морской бой / Battleship | Дубляж | 1080p, HEVC, Дубляж Мичман37 Скачать
1 | 0
Фильмы (HD 720p, 1080p) (48-60 fps) [ 6.84 GB ] Морской бой / Battleship | Лицензия | 720p, Дубляж, Лицензия -=DANTE=- Скачать
2 | 0
Фильмы (Blu-ray, BD-Remux, HDDVD) [ 39.57 GB ] Морской бой / Battleship / 2012 / Blu-ray CEE | DUB | Blu-ray CEE (Питер Берг shuller Скачать
1 | 0
Фильмы с авторской озвучкой [ 2.18 GB ] Морской бой / Battleship | AVO | BDRip killermax2013 Скачать
1 | 0
Фильмы 2012 [ 1.46 GB ] Морской бой / Battleship | | BDRip Demonessa Скачать
2 | 0

28-11-2019 20:33  


Отключить вcю реклaмy на сайте, в т.ч. и в плеере онлайн просмотра!

    Дорогой пользователь! Огромная просьба, поблагодарите релизера, оцените раздачу и оставьте свои комментарий, если Вы скачали Морской бой через торрент бесплатно!!
    Комментировать посты могут только пользователи прошедшие не сложную регистрацию
    Показать сообщения:    


    Морской бой через торрент
    Скачать бесплатно Морской бой
    Морской бой скачать торрент
    Морской бой смотреть онлайн
    Cкачать фильм Морской бой бесплатно
    Морской бой скачать торрент в хорошем качестве
    Морской бой смотреть онлайн бесплатно в хорошем качестве
    Вы не можете начинать темы
    Вы не можете отвечать на сообщения
    Вы не можете редактировать свои сообщения
    Вы не можете удалять свои сообщения
    Вы не можете голосовать в опросах
    Вы не можете прикреплять файлы к сообщениям
    Вы можете скачивать файлы
    Морской бой / Battleship [2012, Фантастика, боевик, триллер, UHD BDRemux 2160p] 3xAVO+2xDUB смотреть онлайн, скачать торрент picoco.icu