Достать ножи: Стеклянная луковица

MVO

Добыча

Дубляж

Уэнсдэй

1 сезон

Тор

Дубляж

13 клиническая

1 сезон

Жестокая ночь

MVO

Одни из нас

1 сезон

Deluxe

pack

Рекомендуем

30

Пиратка

ВАЖНО

ВАЖНО

Ghostwire

Пиратка

jed

RePack

nioh2

RePack

RDR2

RePack

NEED FOR SPEED™ PAYBACK

RePack

скачать торрент

Кинопоиск HD

Острые козырьки 6 сезон

6 сезон

FAR CRY 6

RePack

скачать торрент

Лицензия

скачать торрент

MVO

1

1 сезон

скачать торрент

1 сезон

скачать торрент

Лицензия

  

Оно / It (Андрес Мускетти) [2017, ужасы, триллер, UHD BDRemux 2160p] Дубляж (rus, ukr) + MVO + 3xAVO + VO

Оно через торрент 5050.piratbit.fun

Размер: 61.75 GB | Добавлен: 5 лет назад | Торрент скачан:75 раз
Смотреть онлайн | Скачать | Поддержите нас   

04-02-2018 07:40 Оно Скачать торрент  

Оно / It«А чего боишься ты?»
Год выпуска: 2017
Страна: США, Канада
Жанр: ужасы, триллер
Продолжительность: 02:14:42
Перевод: Дублированный, любительский многоголосый, авторский, любительский одноголосый
Субтитры: Русские (полные, форсированные), украинские (форсированные), английские
Режиссер: Андрес Мускетти
В ролях:

Джейден Либерер (Bill Denbrough), Джереми Рэй Тейлор (Ben Hanscom), Софиа Лиллис (Beverly Marsh), Финн Вулфард (Richie Tozier), Чоузен Джейкобс (Mike Hanlon), Джек Дилан Грейзер (Eddie Kaspbrak), Уайатт Олефф (Stanley Uris), Билл Скарсгард (Pennywise), Николас Хэмилтон (Henry Bowers), Джейк Сим (Belch Huggins), Логан Томпсон (Victor Criss), Оуэн Тиг (Patrick Hockstetter)
Описание:
Когда в городке Дерри, штат Мэн, начинают пропадать дети, несколько ребят сталкиваются со своими величайшими страхами и вынуждены помериться силами со злобным клоуном Пеннивайзом, чьи проявления жестокости и список жертв уходят в глубь веков.
Рейтинг:

MPAA: R - Лицам до 17 лет обязательно присутствие взрослого
Качество: UHD BDRemux 2160p
Формат: MKV
Видео: HEVC, 49.9 Мбит/с, 3840x2160, 23,976 fps
Аудио 1: Русский AC3, 6 ch, 448 Кбит/с - Дубляж
Аудио 2: Русский AC3, 6 ch, 640 Кбит/с - Любительский многоголосый (Paradox&Omskbird)
Аудио 3: Русский DTS-HD MA, 8 ch, 5200 kbps, 48 kHz, 24 bit - Авторский (Чадов)
Аудио 4: Русский DTS-HD MA, 8 ch, 5201 kbps, 48 kHz, 24 bit - Авторский (Живов)
Аудио 5: Русский AC3, 6 ch, 448 Кбит/с - Авторский (Чадов)
Аудио 6: Русский AC3, 6 ch, 384 Кбит/с - Авторский (Дольский)
Аудио 7: Русский AC3, 6 ch, 448 Кбит/с - Любительский одноголосый (Солод)
Аудио 8: Украинский AC3, 2 ch, 192 Кбит/с - Дубляж
Аудио 9: Английский DTS-HD MA Audio, 8 ch, 48 kHz, 3840 kbps - Оригинал
Аудио 10: Английский 6 ch, 448 Кбит/с - Оригинал
Навигация по главам: есть
Видео
Идентификатор : 1
Формат : HEVC
Формат/Информация : High Efficiency Video Coding
Профиль формата : Main [email protected]@High
Идентификатор кодека : V_MPEGH/ISO/HEVC
Продолжительность : 2 ч. 14 м.
Битрейт : 49,9 Мбит/сек
Ширина : 3840 пикселей
Высота : 2160 пикселей
Соотношение сторон : 16:9
Режим частоты кадров : Постоянный
Частота кадров : 23,976 (24000/1001) кадра/сек
Цветовое пространство : YUV
Субдискретизация насыщенности : 4:2:0 (Type 2)
Битовая глубина : 10 бит
Бит/(Пиксели*Кадры) : 0.251
Размер потока : 47,0 Гбайт (76%)
Заголовок : It.2017.2160p.BluRay.REMUX.HEVC.HDR
Язык : English
Default : Да
Forced : Нет
Цветовой диапазон : Limited
Основные цвета : BT.2020
Характеристики трансфера : PQ
Коэффициенты матрицы : BT.2020 non-constant
MasteringDisplay_ColorPrimaries : Display P3
MasteringDisplay_Luminance : min: 0.0050 cd/m2, max: 4000 cd/m2
MaxCLL : 1097 cd/m2
MaxFALL : 158 cd/m2

Аудио #1
Идентификатор : 2
Формат : AC-3
Формат/Информация : Audio Coding 3
Идентификатор кодека : A_AC3
Продолжительность : 2 ч. 14 м.
Вид битрейта : Постоянный
Битрейт : 448 Кбит/сек
Каналы : 6 каналов
Расположение каналов : Front: L C R, Side: L R, LFE
Частота : 48,0 КГц
Частота кадров : 31,250 кадров/сек (1536 SPF)
Битовая глубина : 16 бит
Метод сжатия : С потерями
Размер потока : 432 Мбайт (1%)
Заголовок : | Дублированный |
Язык : Russian
ServiceKind/String : Complete Main
Default : Да
Forced : Нет

Аудио #2
Идентификатор : 3
Формат : AC-3
Формат/Информация : Audio Coding 3
Идентификатор кодека : A_AC3
Продолжительность : 2 ч. 14 м.
Вид битрейта : Постоянный
Битрейт : 640 Кбит/сек
Каналы : 6 каналов
Расположение каналов : Front: L C R, Side: L R, LFE
Частота : 48,0 КГц
Частота кадров : 31,250 кадров/сек (1536 SPF)
Битовая глубина : 16 бит
Метод сжатия : С потерями
Размер потока : 617 Мбайт (1%)
Заголовок : | ПМ (Paradox&Omskbird) |
Язык : Russian
ServiceKind/String : Complete Main
Default : Нет
Forced : Нет

Аудио #3
Идентификатор : 4
Формат : DTS
Формат/Информация : Digital Theater Systems
Профиль формата : MA / Core
Идентификатор кодека : A_DTS
Продолжительность : 2 ч. 14 м.
Вид битрейта : Переменный / Постоянный
Битрейт : 5200 Кбит/сек / 1509 Кбит/сек
Каналы : 8 каналов / 6 каналов
Расположение каналов : Front: L C R, Side: L R, Back: L R, LFE / Front: L C R, Side: L R, LFE
Частота : 48,0 КГц
Частота кадров : 93,750 кадра/сек (512 SPF)
Битовая глубина : 24 бит
Метод сжатия : Без потерь / Lossy
Размер потока : 4,89 Гбайт (8%)
Заголовок : | DTS-HD MA - АП (Чадов) |
Язык : Russian
Default : Нет
Forced : Нет

Аудио #4
Идентификатор : 5
Формат : DTS
Формат/Информация : Digital Theater Systems
Профиль формата : MA / Core
Идентификатор кодека : A_DTS
Продолжительность : 2 ч. 14 м.
Вид битрейта : Переменный / Постоянный
Битрейт : 5201 Кбит/сек / 1509 Кбит/сек
Каналы : 8 каналов / 6 каналов
Расположение каналов : Front: L C R, Side: L R, Back: L R, LFE / Front: L C R, Side: L R, LFE
Частота : 48,0 КГц
Частота кадров : 93,750 кадра/сек (512 SPF)
Битовая глубина : 24 бит
Метод сжатия : Без потерь / Lossy
Размер потока : 4,89 Гбайт (8%)
Заголовок : | DTS-HD MA - АП (Живов) |
Язык : Russian
Default : Нет
Forced : Нет

Аудио #5
Идентификатор : 6
Формат : AC-3
Формат/Информация : Audio Coding 3
Идентификатор кодека : A_AC3
Продолжительность : 2 ч. 14 м.
Вид битрейта : Постоянный
Битрейт : 448 Кбит/сек
Каналы : 6 каналов
Расположение каналов : Front: L C R, Side: L R, LFE
Частота : 48,0 КГц
Частота кадров : 31,250 кадров/сек (1536 SPF)
Битовая глубина : 16 бит
Метод сжатия : С потерями
Размер потока : 432 Мбайт (1%)
Заголовок : | AC3 - АП (Чадов) |
Язык : Russian
ServiceKind/String : Complete Main
Default : Нет
Forced : Нет

Аудио #6
Идентификатор : 7
Формат : AC-3
Формат/Информация : Audio Coding 3
Идентификатор кодека : A_AC3
Продолжительность : 2 ч. 14 м.
Вид битрейта : Постоянный
Битрейт : 384 Кбит/сек
Каналы : 6 каналов
Расположение каналов : Front: L C R, Side: L R, LFE
Частота : 48,0 КГц
Частота кадров : 31,250 кадров/сек (1536 SPF)
Битовая глубина : 16 бит
Метод сжатия : С потерями
Размер потока : 370 Мбайт (1%)
Заголовок : | AC3 - АП (Дольский) |
Язык : Russian
ServiceKind/String : Complete Main
Default : Нет
Forced : Нет

Аудио #7
Идентификатор : 8
Формат : AC-3
Формат/Информация : Audio Coding 3
Идентификатор кодека : A_AC3
Продолжительность : 2 ч. 14 м.
Вид битрейта : Постоянный
Битрейт : 448 Кбит/сек
Каналы : 6 каналов
Расположение каналов : Front: L C R, Side: L R, LFE
Частота : 48,0 КГц
Частота кадров : 31,250 кадров/сек (1536 SPF)
Битовая глубина : 16 бит
Метод сжатия : С потерями
Размер потока : 432 Мбайт (1%)
Заголовок : | AC3 - ЛО (Солод) |
Язык : Russian
ServiceKind/String : Complete Main
Default : Нет
Forced : Нет

Аудио #8
Идентификатор : 9
Формат : AC-3
Формат/Информация : Audio Coding 3
Идентификатор кодека : A_AC3
Продолжительность : 2 ч. 14 м.
Вид битрейта : Постоянный
Битрейт : 192 Кбит/сек
Каналы : 2 канала
Расположение каналов : Front: L R
Частота : 48,0 КГц
Частота кадров : 31,250 кадров/сек (1536 SPF)
Битовая глубина : 16 бит
Метод сжатия : С потерями
Размер потока : 185 Мбайт (0%)
Заголовок : | Дублированный |
Язык : Ukrainian
ServiceKind/String : Complete Main
Default : Нет
Forced : Нет

Аудио #9
Идентификатор : 10
Формат : DTS
Формат/Информация : Digital Theater Systems
Профиль формата : MA / Core
Идентификатор кодека : A_DTS
Продолжительность : 2 ч. 14 м.
Вид битрейта : Переменный / Постоянный
Битрейт : 2274 Кбит/сек / 1509 Кбит/сек
Каналы : 6 каналов
Расположение каналов : Front: L C R, Side: L R, LFE
Частота : 48,0 КГц
Частота кадров : 93,750 кадра/сек (512 SPF)
Битовая глубина : 16 бит
Метод сжатия : Без потерь / Lossy
Размер потока : 2,14 Гбайт (3%)
Заголовок : | Original |
Язык : English
Default : Нет
Forced : Нет

Аудио #10
Идентификатор : 11
Формат : AC-3
Формат/Информация : Audio Coding 3
Идентификатор кодека : A_AC3
Продолжительность : 2 ч. 14 м.
Вид битрейта : Постоянный
Битрейт : 448 Кбит/сек
Каналы : 6 каналов
Расположение каналов : Front: L C R, Side: L R, LFE
Частота : 48,0 КГц
Частота кадров : 31,250 кадров/сек (1536 SPF)
Битовая глубина : 16 бит
Метод сжатия : С потерями
Размер потока : 432 Мбайт (1%)
Заголовок : | Original |
Язык : English
ServiceKind/String : Complete Main
Default : Нет
Forced : Нет

Текст #1
Идентификатор : 12
Формат : UTF-8
Идентификатор кодека : S_TEXT/UTF8
Идентификатор кодека/Информация : UTF-8 Plain Text
Продолжительность : 2 ч. 8 м.
Битрейт : 2 бит/сек
ElementCount : 48
Размер потока : 2,16 Кбайт (0%)
Заголовок : Forced
Язык : Russian
Default : Да
Forced : Да

Текст #2
Идентификатор : 13
Формат : UTF-8
Идентификатор кодека : S_TEXT/UTF8
Идентификатор кодека/Информация : UTF-8 Plain Text
Продолжительность : 2 ч. 8 м.
Битрейт : 64 бит/сек
ElementCount : 1209
Размер потока : 60,7 Кбайт (0%)
Заголовок : Full
Язык : Russian
Default : Нет
Forced : Нет

Текст #3
Идентификатор : 14
Формат : UTF-8
Идентификатор кодека : S_TEXT/UTF8
Идентификатор кодека/Информация : UTF-8 Plain Text
Продолжительность : 2 ч. 8 м.
Битрейт : 64 бит/сек
ElementCount : 1385
Размер потока : 60,6 Кбайт (0%)
Заголовок : Perevodman
Язык : Russian
Default : Нет
Forced : Нет

Текст #4
Идентификатор : 15
Формат : UTF-8
Идентификатор кодека : S_TEXT/UTF8
Идентификатор кодека/Информация : UTF-8 Plain Text
Продолжительность : 2 ч. 12 м.
Битрейт : 2 бит/сек
ElementCount : 69
Размер потока : 2,49 Кбайт (0%)
Заголовок : Forced
Язык : Ukrainian
Default : Нет
Forced : Да

Текст #5
Идентификатор : 16
Формат : UTF-8
Идентификатор кодека : S_TEXT/UTF8
Идентификатор кодека/Информация : UTF-8 Plain Text
Продолжительность : 2 ч. 13 м.
Битрейт : 38 бит/сек
ElementCount : 1381
Размер потока : 37,3 Кбайт (0%)
Заголовок : Full
Язык : English
Default : Нет
Forced : Нет

Текст #6
Идентификатор : 17
Формат : UTF-8
Идентификатор кодека : S_TEXT/UTF8
Идентификатор кодека/Информация : UTF-8 Plain Text
Продолжительность : 2 ч. 14 м.
Битрейт : 50 бит/сек
ElementCount : 1836
Размер потока : 49,5 Кбайт (0%)
Заголовок : SDH
Язык : English
Default : Нет
Forced : Нет

Текст #7
Идентификатор : 18
Формат : UTF-8
Идентификатор кодека : S_TEXT/UTF8
Идентификатор кодека/Информация : UTF-8 Plain Text
Продолжительность : 2 ч. 14 м.
Битрейт : 86 бит/сек
ElementCount : 1813
Размер потока : 85,6 Кбайт (0%)
Заголовок : SDH (Colored)
Язык : English
Default : Нет
Forced : Нет

Меню
00:00:00.000 : en:Chapter 1
00:09:23.646 : en:Chapter 2
00:18:31.860 : en:Chapter 3
00:28:26.162 : en:Chapter 4
00:38:36.981 : en:Chapter 5
00:48:19.438 : en:Chapter 6
00:59:30.775 : en:Chapter 7
01:08:52.795 : en:Chapter 8
01:16:58.822 : en:Chapter 9
01:26:52.957 : en:Chapter 10
01:38:15.306 : en:Chapter 11
01:48:40.972 : en:Chapter 12
02:04:07.898 : en:Chapter 13
02:09:05.654 : en:Chapter 14



Скачать Оно через торрент http://i99.fastpic.ru/big/2018/0204/9c/88473e25a8dd969e6008a8463c7e9d9c.png Скачать, смотреть онлайн Оно бесплантно в хорошем качестве Описание: Когда в городке Дерри, штат Мэн, начинают пропадать дети, несколько ребят сталкиваются со своими величайшими страхами и вынуждены ... 9.3 10 7
Info! Золотая раздача, скачанное не засчитывается.
Торрент: Зарегистрирован [2018-02-04 07:40] · скачан: 75 раз
Статус: √ проверено
Размер: 61.75 GB
Как cкачать? Как скачать Оно через торрент | UTorrent

% Раздел Тема Автор DL S | L
Ultra HD (UHD: 2K, 4K, 8K) [ 72.16 GB ] Оно / It | DUB + MVO + 4xAVO + VO | 2160p sheker187 Скачать
1 | 0
Фильмы (Blu-ray, BD-Remux, HDDVD) [ 42.34 GB ] Оно / It | DUB | 1080p sheker187 Скачать
1 | 0

28-11-2019 20:33  


Отключить вcю реклaмy на сайте, в т.ч. и в плеере онлайн просмотра!

04-02-2018 11:16 Оно Скачать торрент  

Класс, 2160p, спасибо ещё раз!



    Дорогой пользователь! Огромная просьба, поблагодарите релизера, оцените раздачу и оставьте свои комментарий, если Вы скачали Оно через торрент бесплатно!!
    Комментировать посты могут только пользователи прошедшие не сложную регистрацию
    Показать сообщения:    


    Оно через торрент
    Скачать бесплатно Оно
    Оно скачать торрент
    Оно смотреть онлайн
    Cкачать фильм Оно бесплатно
    Оно скачать торрент в хорошем качестве
    Оно смотреть онлайн бесплатно в хорошем качестве
    Вы не можете начинать темы
    Вы не можете отвечать на сообщения
    Вы не можете редактировать свои сообщения
    Вы не можете удалять свои сообщения
    Вы не можете голосовать в опросах
    Вы не можете прикреплять файлы к сообщениям
    Вы можете скачивать файлы
    Оно / It [2017, ужасы, триллер, UHD BDRemux 2160p] Дубляж + MVO + 3xAVO + VO смотреть онлайн, скачать торрент picoco.icu