Достать ножи: Стеклянная луковица

MVO

Добыча

Дубляж

Уэнсдэй

1 сезон

Тор

Дубляж

13 клиническая

1 сезон

Жестокая ночь

MVO

Одни из нас

1 сезон

Deluxe

pack

Рекомендуем

30

Пиратка

ВАЖНО

ВАЖНО

Ghostwire

Пиратка

jed

RePack

nioh2

RePack

RDR2

RePack

NEED FOR SPEED™ PAYBACK

RePack

скачать торрент

Кинопоиск HD

Острые козырьки 6 сезон

6 сезон

FAR CRY 6

RePack

скачать торрент

Лицензия

скачать торрент

MVO

1

1 сезон

скачать торрент

1 сезон

скачать торрент

Лицензия

  

Бегущий по лезвию 2049 / Blade Runner 2049 (Дени Вильнёв) [2017, фантастика, триллер, UHD BDRemux 2160p] 2xAVO [Д.Есарев, Ю.Живов] +Дубляж (ukr) +Дубляж [Лицензия]

Бегущий по лезвию 2049 через торрент 5050.piratbit.fun

Качают: 1 [ 5 MB/s ]
Размер: 81.15 GB | Добавлен: 5 лет назад | Торрент скачан:292 раза
Смотреть онлайн | Скачать | Поддержите нас   

05-02-2018 10:55 Бегущий по лезвию 2049 Скачать торрент  

Бегущий по лезвию 2049 / Blade Runner 2049 Год выпуска: 2017
Страна: США , Великобритания , Канада
Жанр: фантастика, триллер
Продолжительность: 02:43:26
Перевод: Дубляж - [Лицензия], авторский (Д.Есарев, Ю.Живов)
Субтитры: Русские (форсированные, полные), украинские (форсированные, полные), английские (полные, SDH)

Режиссер: Дени Вильнёв

rating

В ролях:


Райан Гослинг («K»), Харрисон Форд (Rick Deckard), Ана де Армас (Joi), Сильвия Хукс (Luv), Робин Райт (Lieutenant Joshi), Маккензи Дэвис (Mariette), Карла Юри (Dr. Ana Stelline), Ленни Джеймс (Mister Cotton), Дэйв Батиста (Sapper Morton), Джаред Лето (Niander Wallace), Давид Дастмалчян (Coco), Баркхад Абди (Doc Badger)
Описание:

В недалеком будущем мир населен людьми и репликантами, созданными выполнять самую тяжелую работу. Работа офицера полиции Кей — держать репликантов под контролем в условиях нарастающего напряжения… Пока он случайно не становится обладателем секретной информации. Желая найти ключ к разгадке, Кей решает разыскать Рика Декарда, бывшего офицера специального подразделения полиции Лос-Анджелеса, который бесследно исчез много лет назад..

Качество: UHD BDRemux 2160p
Формат: MKV

Видео: HEVC,HDR 49.5 Мбит/с, 3840x2160, 23.976 Кадр/с
Аудио#1: Русский, AC-3, 5.1, 48 kHz, 640 kbps | | Дублированный | (Лицензия BD CEE)
Аудио#2: Русский, DTS-HD MA, 7.1, 48 kHz, 3852 kbps, 24-bit | Дублированный |
Аудио#3: Русский, AC-3, 5.1, 48 kHz, 640 kbps | авторский (Д.Есарев)
Аудио#4: Русский, AC-3, 5.1, 48 kHz, 640 kbps | (авторский (Д.Есарев)
Аудио#5: Русский, DTS-HD MA, 5.1, 48 kHz, 2226 kbps, 16-bit | (авторский (Ю.Живов)
Аудио#6: Украинский, AC-3, 2.0, 48 kHz, 192 kbps | Дублированный |
Аудио#7: Английский, TrueHD Atmos, 7.1, 4597 Кбит/с, 24-bit | Original
Аудио#8: Английский, DTS-HD MA, 7.1, 3840 Кбит/с, 24-bit | Original, DTS-HD |
Аудио#9: Английский, AC-3, 5.1, 48 kHz, 640 kbps | Original, AC3 CORE|
Аудио#10: Английский, AC-3, 5.1, 48 kHz, 640 kbps | English, Audiodeion |
скриншот  скриншот  скриншот  скриншот  скриншот  скриншот  

Видео
Идентификатор : 1
Формат : HEVC
Формат/Информация : High Efficiency Video Coding
Профиль формата : Main [email protected]@High
Идентификатор кодека : V_MPEGH/ISO/HEVC
Продолжительность : 2 ч. 43 м.
Битрейт : 49,5 Мбит/сек
Ширина : 3840 пикселей
Высота : 2160 пикселей
Соотношение сторон : 16:9
Режим частоты кадров : Постоянный
Частота кадров : 23,976 (24000/1001) кадра/сек
Цветовое пространство : YUV
Субдискретизация насыщенности : 4:2:0 (Type 2)
Битовая глубина : 10 бит
Бит/(Пиксели*Кадры) : 0.249
Размер потока : 56,5 Гбайт (70%)
Заголовок : Blade.Runner.2049.2017.2160p.BluRay.HEVC.HDR
Default : Да
Forced : Нет
Цветовой диапазон : Limited
Основные цвета : BT.2020
Характеристики трансфера : PQ
Коэффициенты матрицы : BT.2020 non-constant
MasteringDisplay_ColorPrimaries : Display P3
MasteringDisplay_Luminance : min: 0.0050 cd/m2, max: 4000 cd/m2
MaxCLL : 457 cd/m2
MaxFALL : 179 cd/m2

Аудио #1
Идентификатор : 2
Формат : AC-3
Формат/Информация : Audio Coding 3
Идентификатор кодека : A_AC3
Продолжительность : 2 ч. 43 м.
Вид битрейта : Постоянный
Битрейт : 640 Кбит/сек
Каналы : 6 каналов
Расположение каналов : Front: L C R, Side: L R, LFE
Частота : 48,0 КГц
Частота кадров : 31,250 кадров/сек (1536 SPF)
Битовая глубина : 16 бит
Метод сжатия : С потерями
Размер потока : 748 Мбайт (1%)
Заголовок : | Дублированный, Лицензия |
Язык : Russian
ServiceKind/String : Complete Main
Default : Да
Forced : Нет

Аудио #2
Идентификатор : 3
Формат : DTS
Формат/Информация : Digital Theater Systems
Профиль формата : MA / Core
Идентификатор кодека : A_DTS
Продолжительность : 2 ч. 43 м.
Вид битрейта : Переменный / Постоянный
Битрейт : 4222 Кбит/сек / 1509 Кбит/сек
Каналы : 8 каналов / 6 каналов
Расположение каналов : Front: L C R, Side: L R, Back: L R, LFE / Front: L C R, Side: L R, LFE
Частота : 48,0 КГц
Частота кадров : 93,750 кадра/сек (512 SPF)
Битовая глубина : 24 бит
Метод сжатия : Без потерь / Lossy
Размер потока : 4,82 Гбайт (6%)
Заголовок : | Дублированный, DTS HD |
Язык : Russian
Default : Нет
Forced : Нет

Аудио #3
Идентификатор : 4
Формат : AC-3
Формат/Информация : Audio Coding 3
Идентификатор кодека : A_AC3
Продолжительность : 2 ч. 43 м.
Вид битрейта : Постоянный
Битрейт : 640 Кбит/сек
Каналы : 6 каналов
Расположение каналов : Front: L C R, Side: L R, LFE
Частота : 48,0 КГц
Частота кадров : 31,250 кадров/сек (1536 SPF)
Битовая глубина : 16 бит
Метод сжатия : С потерями
Размер потока : 749 Мбайт (1%)
Заголовок : | Авторский, Д. Есарев |
Язык : Russian
ServiceKind/String : Complete Main
Default : Нет
Forced : Нет

Аудио #4
Идентификатор : 5
Формат : DTS
Формат/Информация : Digital Theater Systems
Профиль формата : MA / Core
Идентификатор кодека : A_DTS
Продолжительность : 2 ч. 43 м.
Вид битрейта : Переменный / Постоянный
Битрейт : 3840 Кбит/сек / 1509 Кбит/сек
Каналы : 6 каналов
Расположение каналов : Front: L C R, Side: L R, LFE
Частота : 48,0 КГц
Частота кадров : 93,750 кадра/сек (512 SPF)
Битовая глубина : 24 бит
Метод сжатия : Без потерь / Lossy
Размер потока : 4,40 Гбайт (5%)
Заголовок : | Авторский, Д. Есарев |
Язык : Russian
Default : Нет
Forced : Нет

Аудио #5
Идентификатор : 6
Формат : DTS
Формат/Информация : Digital Theater Systems
Профиль формата : MA / Core
Идентификатор кодека : A_DTS
Продолжительность : 2 ч. 43 м.
Вид битрейта : Переменный / Постоянный
Битрейт : 2226 Кбит/сек / 1509 Кбит/сек
Каналы : 6 каналов
Расположение каналов : Front: L C R, Side: L R, LFE
Частота : 48,0 КГц
Частота кадров : 93,750 кадра/сек (512 SPF)
Битовая глубина : 16 бит
Метод сжатия : Без потерь / Lossy
Размер потока : 2,54 Гбайт (3%)
Заголовок : | Авторский Ю.Живов |
Язык : Russian
Default : Нет
Forced : Нет

Аудио #6
Идентификатор : 7
Формат : AC-3
Формат/Информация : Audio Coding 3
Идентификатор кодека : A_AC3
Продолжительность : 2 ч. 43 м.
Вид битрейта : Постоянный
Битрейт : 192 Кбит/сек
Каналы : 2 канала
Расположение каналов : Front: L R
Частота : 48,0 КГц
Частота кадров : 31,250 кадров/сек (1536 SPF)
Битовая глубина : 16 бит
Метод сжатия : С потерями
Размер потока : 225 Мбайт (0%)
Заголовок : | Дублированный, iTunes |
Язык : Ukrainian
ServiceKind/String : Complete Main
Default : Нет
Forced : Нет

Аудио #7
Идентификатор : 8
Формат : TrueHD
Профиль формата : TrueHD+Atmos / TrueHD
Идентификатор кодека : A_TRUEHD
Продолжительность : 2 ч. 43 м.
Вид битрейта : Переменный
Битрейт : 4597 Кбит/сек
Максимальный битрейт : 5022 Кбит/сек
Каналы : Object Based / 8 каналов
Расположение каналов : Object Based / Front: L C R, Side: L R, Back: L R, LFE
Частота : / 48,0 КГц
Частота кадров : 1200,000 кадров/сек (40 SPF)
Метод сжатия : Без потерь
Размер потока : 5,25 Гбайт (6%)
Заголовок : | Original |
Язык : English
Default : Нет
Forced : Нет

Аудио #8
Идентификатор : 9
Формат : DTS
Формат/Информация : Digital Theater Systems
Профиль формата : MA / Core
Идентификатор кодека : A_DTS
Продолжительность : 2 ч. 43 м.
Вид битрейта : Переменный / Постоянный
Битрейт : 3840 Кбит/сек / 1509 Кбит/сек
Каналы : 8 каналов / 6 каналов
Расположение каналов : Front: L C R, Side: L R, Back: L R, LFE / Front: L C R, Side: L R, LFE
Частота : 48,0 КГц
Частота кадров : 93,750 кадра/сек (512 SPF)
Битовая глубина : 24 бит
Метод сжатия : Без потерь / Lossy
Размер потока : 4,37 Гбайт (5%)
Заголовок : | Original, DTS-HD|
Язык : English
Default : Нет
Forced : Нет

Аудио #9
Идентификатор : 10
Формат : AC-3
Формат/Информация : Audio Coding 3
Идентификатор кодека : A_AC3
Продолжительность : 2 ч. 43 м.
Вид битрейта : Постоянный
Битрейт : 640 Кбит/сек
Каналы : 6 каналов
Расположение каналов : Front: L C R, Side: L R, LFE
Частота : 48,0 КГц
Частота кадров : 31,250 кадров/сек (1536 SPF)
Битовая глубина : 16 бит
Метод сжатия : С потерями
Размер потока : 748 Мбайт (1%)
Заголовок : | Original, AC3 CORE|
Язык : English
ServiceKind/String : Complete Main
Default : Нет
Forced : Нет

Аудио #10
Идентификатор : 11
Формат : AC-3
Формат/Информация : Audio Coding 3
Идентификатор кодека : A_AC3
Продолжительность : 2 ч. 43 м.
Вид битрейта : Постоянный
Битрейт : 640 Кбит/сек
Каналы : 6 каналов
Расположение каналов : Front: L C R, Side: L R, LFE
Частота : 48,0 КГц
Частота кадров : 31,250 кадров/сек (1536 SPF)
Битовая глубина : 16 бит
Метод сжатия : С потерями
Размер потока : 748 Мбайт (1%)
Заголовок : | English, Audiodescription |
Язык : English
ServiceKind/String : Complete Main
Default : Нет
Forced : Нет

Текст #1
Идентификатор : 12
Формат : UTF-8
Идентификатор кодека : S_TEXT/UTF8
Идентификатор кодека/Информация : UTF-8 Plain Text
Продолжительность : 2 ч. 32 м.
Битрейт : 2 бит/сек
ElementCount : 49
Размер потока : 2,96 Кбайт (0%)
Заголовок : Forced
Язык : Russian
Default : Да
Forced : Да

Текст #2
Идентификатор : 13
Формат : UTF-8
Идентификатор кодека : S_TEXT/UTF8
Идентификатор кодека/Информация : UTF-8 Plain Text
Продолжительность : 2 ч. 41 м.
Битрейт : 40 бит/сек
ElementCount : 1069
Размер потока : 47,5 Кбайт (0%)
Заголовок : Full
Язык : Russian
Default : Нет
Forced : Нет

Текст #3
Идентификатор : 14
Формат : UTF-8
Идентификатор кодека : S_TEXT/UTF8
Идентификатор кодека/Информация : UTF-8 Plain Text
Продолжительность : 1 ч. 19 м.
Битрейт : 1 бит/сек
ElementCount : 23
Размер потока : 978 байт (0%)
Заголовок : Forced
Язык : Ukrainian
Default : Нет
Forced : Да

Текст #4
Идентификатор : 15
Формат : UTF-8
Идентификатор кодека : S_TEXT/UTF8
Идентификатор кодека/Информация : UTF-8 Plain Text
Продолжительность : 2 ч. 41 м.
Битрейт : 39 бит/сек
ElementCount : 1050
Размер потока : 46,4 Кбайт (0%)
Заголовок : Full
Язык : Ukrainian
Default : Нет
Forced : Нет

Текст #5
Идентификатор : 16
Формат : UTF-8
Идентификатор кодека : S_TEXT/UTF8
Идентификатор кодека/Информация : UTF-8 Plain Text
Продолжительность : 2 ч. 26 м.
Битрейт : 24 бит/сек
ElementCount : 972
Размер потока : 26,7 Кбайт (0%)
Заголовок : Full
Язык : English
Default : Нет
Forced : Нет

Текст #6
Идентификатор : 17
Формат : UTF-8
Идентификатор кодека : S_TEXT/UTF8
Идентификатор кодека/Информация : UTF-8 Plain Text
Продолжительность : 2 ч. 29 м.
Битрейт : 32 бит/сек
ElementCount : 1358
Размер потока : 35,0 Кбайт (0%)
Заголовок : Full, SDH
Язык : English
Default : Нет
Forced : Нет

Меню
00:00:00.000 : en:Chapter 1
00:12:36.172 : en:Chapter 2
00:23:29.282 : en:Chapter 3
00:37:00.885 : en:Chapter 4
00:42:50.317 : en:Chapter 5
00:49:24.503 : en:Chapter 6
00:58:35.553 : en:Chapter 7
01:04:10.680 : en:Chapter 8
01:15:47.292 : en:Chapter 9
01:25:12.482 : en:Chapter 10
01:36:15.060 : en:Chapter 11
01:50:55.106 : en:Chapter 12
02:01:36.872 : en:Chapter 13
02:08:40.379 : en:Chapter 14
02:16:42.485 : en:Chapter 15
02:27:46.732 : en:Chapter 16




Скачать Бегущий по лезвию 2049 через торрент http://img12.lostpic.net/2018/01/16/967bc71328779eeeda48d63a069146f5.jpg Скачать, смотреть онлайн Бегущий по лезвию 2049 бесплантно в хорошем качестве Описание: В недалеком будущем мир населен людьми и репликантами, созданными выполнять самую тяжелую работу. Работа офицера полиции Кей — ... 9.6 10 12
Info! Золотая раздача, скачанное не засчитывается.
Торрент: Зарегистрирован [2018-02-05 10:55] · скачан: 292 раз
Статус: √ проверено
Размер: 81.15 GB
Как cкачать? Как скачать Бегущий по лезвию 2049 через торрент | UTorrent

% Раздел Тема Автор DL S | L
Фильмы (HD 720p, 1080p) (48-60 fps) [ 7.65 GB ] Бегущий по лезвию 2049 / Blade Runner 2049 | Дубляж | 720p / 60 FPS , Дубляж slaventi-69 Скачать
3 | 0
3D Фильмы [ 9.98 GB ] Бегущий по лезвию 2049 в 3D / Blade Runner 2049 in 3D | Дубляж | 1080p , Дубляж slaventi-69 Скачать
1 | 0
Фильмы 2017 [DVDrip, WEB-DLRip, HDrip] (DUB, MVO) [ 2.9 GB ] Бегущий по лезвию 2049 / Blade Runner 2049 | Лицензия | BDRip Twi7ter Скачать
2 | 0
Фильмы 2017 [DVDrip, WEB-DLRip, HDrip] (DUB, MVO) [ 1.46 GB ] Бегущий по лезвию 2049 / Blade Runner 2049 | Лицензия | BDRip Twi7ter Скачать
4 | 0
Фильмы 2017 [DVDrip, WEB-DLRip, HDrip] (DUB, MVO) [ 2.19 GB ] Бегущий по лезвию 2049 / Blade Runner 2049 | Лицензия | BDRip Twi7ter Скачать
1 | 0
Фильмы (Blu-ray, BD-Remux, HDDVD) [ 28.38 GB ] Бегущий по лезвию 2049 / Blade Runner 2049 | Лицензия | 1080p -Lexx- Скачать
1 | 0
Ultra HD (UHD: 2K, 4K, 8K) [ 74.11 GB ] Бегущий по лезвию 2049 / Blade Runner 2049 | Лицензия | 2160p sheker187 Скачать
1 | 0

28-11-2019 20:33  


Отключить вcю реклaмy на сайте, в т.ч. и в плеере онлайн просмотра!

09-03-2018 01:16 Бегущий по лезвию 2049 Скачать торрент  

Чет как-то лишку дорожек, нет?



    Дорогой пользователь! Огромная просьба, поблагодарите релизера, оцените раздачу и оставьте свои комментарий, если Вы скачали Бегущий по лезвию 2049 через торрент бесплатно!!
    Комментировать посты могут только пользователи прошедшие не сложную регистрацию
    Показать сообщения:    


    Бегущий по лезвию 2049 через торрент
    Скачать бесплатно Бегущий по лезвию 2049
    Бегущий по лезвию 2049 скачать торрент
    Бегущий по лезвию 2049 смотреть онлайн
    Cкачать фильм Бегущий по лезвию 2049 бесплатно
    Бегущий по лезвию 2049 скачать торрент в хорошем качестве
    Бегущий по лезвию 2049 смотреть онлайн бесплатно в хорошем качестве
    Вы не можете начинать темы
    Вы не можете отвечать на сообщения
    Вы не можете редактировать свои сообщения
    Вы не можете удалять свои сообщения
    Вы не можете голосовать в опросах
    Вы не можете прикреплять файлы к сообщениям
    Вы можете скачивать файлы
    Бегущий по лезвию 2049 / Blade Runner 2049 [2017, фантастика, триллер, UHD BDRemux 2160p] 2xAVO [Д.Есарев, Ю.Живов] +Дубляж +Дубляж [Лицензия] смотреть онлайн, скачать торрент picoco.icu