Достать ножи: Стеклянная луковица

MVO

Добыча

Дубляж

Уэнсдэй

1 сезон

Тор

Дубляж

13 клиническая

1 сезон

Жестокая ночь

MVO

Одни из нас

1 сезон

Deluxe

pack

Рекомендуем

30

Пиратка

ВАЖНО

ВАЖНО

Ghostwire

Пиратка

jed

RePack

nioh2

RePack

RDR2

RePack

NEED FOR SPEED™ PAYBACK

RePack

скачать торрент

Кинопоиск HD

Острые козырьки 6 сезон

6 сезон

FAR CRY 6

RePack

скачать торрент

Лицензия

скачать торрент

MVO

1

1 сезон

скачать торрент

1 сезон

скачать торрент

Лицензия

  

Люди в чёрном 3 / Men in Black 3 (Бэрри Зонненфельд) [2012, Фантастика, боевик, комедия, приключения, UHD BDRemux 2160p] AVO [А.Гаврилов] +Дубляж (rus, ukr) [Лицензия Blu-ray EUR]

Люди в чёрном 3 через торрент 5050.piratbit.fun

Размер: 42.94 GB | Добавлен: 4 года 11 мес. назад | Торрент скачан:94 раза
Смотреть онлайн | Скачать | Поддержите нас   

07-02-2018 13:05 Люди в чёрном 3 Скачать торрент  

Люди в чёрном 3 / Men in Black 3Год выпуска: 2012
Страна: США
Жанр: Фантастика, боевик, комедия, приключения
Продолжительность: 01:45:50
Перевод: Дубляж - [Лицензия Blu-ray EUR], авторский
Субтитры: Русские, английские

Режиссер: Бэрри Зонненфельд

rating семпл

В ролях:

Уилл Смит, Джош Бролин, Томми Ли Джонс, Джемейн Клемент, Майкл Стулбарг, Эмма Томпсон, Элис Ив, Майк Колтер, Билл Хэйдер, Майкл Чернус, Николь Шерзингер, Дэвид Раш, Кион Янг, Кайен Мартин, Кларк Торелл, Адам Муччи, Том МакКомас, Дуглас Кросби, Вуди Кинг мл., Джек О`Коннелл, Тобиаш Сигал, Джон Шэйвер, Герритт Вэндэрмир, Александра О`Хара, Виолет О`Хара, Вэленс Томас, Хлоя Сонненфельд, Лэнни Флаэрти, Джонатан О`Хара, Рик Бэйкер, Джо Д`Онофрио, Джозеф Р. Ганнасколи, Кэти Фрейм, Кевин Таунли, Стефен Брайан Джонс, Тайлер Джон

Описание:

Межгалактический преступник Борис Животное совершает побег из Лунной тюрьмы и теперь собирается отправиться в прошлое, чтобы убить своего врага - агента Кея. Больше сорока лет назад агент Кей лишил Бориса руки и арестовал его. Вскоре агент Кей исчезает, только агент Джей помнит его живым, для всех остальных он официально мертв с 1969 года. Агент Джей догадывается, что сбежавший Борис каким-то образом причастен к этому событию. Вскоре раса инопланетных захватчиков, к которой принадлежит и Борис, начинает массированное вторжение на Землю, так как защитное устройство из-за смерти Кея не было установлено. Джей решает отправиться в прошлое вслед за Борисом, теперь у него есть всего 24 часа, чтобы остановить злодея.

Качество: UHD BDRemux 2160p
Формат: MKV

Видео: MPEG-H HEVC HDR, 49.2 Mбит/с, 3840x2160, 23.976 кадр/с
Аудио#1: Русский (AC3, 6 ch, 640 Кбит/с) / дублированный (Blu-ray EUR)
Аудио#2: Русский (DTS-HD MA, 6 ch, ~ 2378 Кбит/с) / Авторский (А. Гаврилов)
Аудио#3: Украинский (AC3, 6 ch, 640 Кбит/с) / дублированный (Blu-ray CEE)
Аудио#4: Английский (TrueHD+Atmos, 8 ch, 5828 Кбит/с)
Аудио#5: Английский (AC3, 6 ch, 640 Кбит/с)
скриншот  скриншот  скриншот  скриншот  скриншот  

General
Unique ID : 137714351930242834425944503567076964344 (0x679AD1C535B97F370834CF6460FA37F8)
Complete name : D:uTorrentLjudi.v.chjernom_3.2012.2160p.HEVC.UHD.HDR.MediaClub.mkv
Format : Matroska
Format version : Version 4 / Version 2
File size : 42.9 GiB
Duration : 1 h 45 min
Overall bit rate mode : Variable
Overall bit rate : 58.1 Mb/s
Encoded date : UTC 2018-02-07 10:50:43
Writing application : mkvmerge v19.0.0 ('Brave Captain') 64-bit
Writing library : libebml v1.3.5 + libmatroska v1.4.8
Cover : Yes
Attachments : cover.jpg

Video
ID : 1
Format : HEVC
Format/Info : High Efficiency Video Coding
Format profile : Main [email protected]@High
Codec ID : V_MPEGH/ISO/HEVC
Duration : 1 h 45 min
Bit rate : 49.2 Mb/s
Width : 3 840 pixels
Height : 2 160 pixels
Display aspect ratio : 16:9
Frame rate mode : Constant
Frame rate : 23.976 (24000/1001) FPS
Color space : YUV
Chroma subsampling : 4:2:0 (Type 2)
Bit depth : 10 bits
Bits/(Pixel*Frame) : 0.248
Stream size : 36.4 GiB (85%)
Title : BDRemux, 20160p, HEVC, UDH, HDR by Silverok
Default : Yes
Forced : No
Color range : Limited
Color primaries : BT.2020
Transfer characteristics : PQ
Matrix coefficients : BT.2020 non-constant
Mastering display color primaries : Display P3
Mastering display luminance : min: 0.0050 cd/m2, max: 4000 cd/m2
Maximum Content Light Level : 1241 cd/m2
Maximum Frame-Average Light Level : 861 cd/m2

Audio #1
ID : 2
Format : AC-3
Format/Info : Audio Coding 3
Codec ID : A_AC3
Duration : 1 h 45 min
Bit rate mode : Constant
Bit rate : 640 kb/s
Channel(s) : 6 channels
Channel positions : Front: L C R, Side: L R, LFE
Sampling rate : 48.0 kHz
Frame rate : 31.250 FPS (1536 SPF)
Bit depth : 16 bits
Compression mode : Lossy
Stream size : 484 MiB (1%)
Title : Профессиональный дублированный (EUR Blu-ray)
Language : Russian
Service kind : Complete Main
Default : Yes
Forced : No

Audio #2
ID : 3
Format : DTS
Format/Info : Digital Theater Systems
Format profile : MA / Core
Codec ID : A_DTS
Duration : 1 h 45 min
Bit rate mode : Variable / Constant
Bit rate : 2 048 kb/s / 1 509 kb/s
Channel(s) : 6 channels
Channel positions : Front: L C R, Side: L R, LFE
Sampling rate : 48.0 kHz
Frame rate : 93.750 FPS (512 SPF)
Bit depth : 16 bits
Compression mode : Lossless / Lossy
Stream size : 1.52 GiB (4%)
Title : Авторский одноголосый закадровый (Гаврилов)
Default : No
Forced : No

Audio #3
ID : 4
Format : AC-3
Format/Info : Audio Coding 3
Codec ID : A_AC3
Duration : 1 h 45 min
Bit rate mode : Constant
Bit rate : 640 kb/s
Channel(s) : 6 channels
Channel positions : Front: L C R, Side: L R, LFE
Sampling rate : 48.0 kHz
Frame rate : 31.250 FPS (1536 SPF)
Bit depth : 16 bits
Compression mode : Lossy
Stream size : 484 MiB (1%)
Title : Дубляж, Blu-ray CEE
Language : Ukrainian
Service kind : Complete Main
Default : No
Forced : No

Audio #4
ID : 7
Format : TrueHD
Format profile : TrueHD+Atmos / TrueHD
Codec ID : A_TRUEHD
Duration : 1 h 45 min
Bit rate mode : Variable
Bit rate : 4 825 kb/s
Maximum bit rate : 8 175 kb/s
Channel(s) : Object Based / 8 channels
Channel positions : Object Based / Front: L C R, Side: L R, Back: L R, LFE
Sampling rate : / 48.0 kHz
Frame rate : 1 200.000 FPS (40 SPF)
Compression mode : Lossless
Stream size : 3.57 GiB (8%)
Language : English
Default : No
Forced : No

Audio #5
ID : 8
Format : AC-3
Format/Info : Audio Coding 3
Codec ID : A_AC3
Duration : 1 h 45 min
Bit rate mode : Constant
Bit rate : 640 kb/s
Channel(s) : 6 channels
Channel positions : Front: L C R, Side: L R, LFE
Sampling rate : 48.0 kHz
Frame rate : 31.250 FPS (1536 SPF)
Bit depth : 16 bits
Compression mode : Lossy
Stream size : 484 MiB (1%)
Language : English
Service kind : Complete Main
Default : No
Forced : No

Text #1
ID : 5
Format : UTF-8
Codec ID : S_TEXT/UTF8
Codec ID/Info : UTF-8 Plain Text
Duration : 1 h 37 min
Bit rate : 102 b/s
Count of elements : 1462
Stream size : 73.3 KiB (0%)
Title : Full
Language : Russian
Default : Yes
Forced : No

Text #2
ID : 6
Format : UTF-8
Codec ID : S_TEXT/UTF8
Codec ID/Info : UTF-8 Plain Text
Duration : 1 h 37 min
Bit rate : 64 b/s
Count of elements : 1448
Stream size : 46.0 KiB (0%)
Title : Full
Language : English
Default : No
Forced : No

Menu
00:00:00.000 : en:Chapter 1
00:06:09.577 : en:Chapter 2
00:11:27.478 : en:Chapter 3
00:16:58.809 : en:Chapter 4
00:22:36.229 : en:Chapter 5
00:31:24.632 : en:Chapter 6
00:37:36.420 : en:Chapter 7
00:42:43.018 : en:Chapter 8
00:48:55.849 : en:Chapter 9
00:53:58.234 : en:Chapter 10
00:59:27.772 : en:Chapter 11
01:05:52.782 : en:Chapter 12
01:11:56.312 : en:Chapter 13
01:19:50.619 : en:Chapter 14
01:27:57.063 : en:Chapter 15
01:35:30.683 : en:Chapter 16




Скачать Люди в чёрном 3 через торрент http://i102.fastpic.ru/big/2018/0120/45/1d92c2465d155d87c0fa8af650b3ed45.png Скачать, смотреть онлайн Люди в чёрном 3 бесплантно в хорошем качестве Описание: Межгалактический преступник Борис Животное совершает побег из Лунной тюрьмы и теперь собирается отправиться в прошлое, чтобы ... 10 10 6
Торрент: Зарегистрирован [2018-02-07 13:05] · скачан: 94 раз
Статус: √ проверено
Размер: 42.94 GB
Как cкачать? Как скачать Люди в чёрном 3 через торрент | UTorrent

28-11-2019 20:33  


Отключить вcю реклaмy на сайте, в т.ч. и в плеере онлайн просмотра!

    Дорогой пользователь! Огромная просьба, поблагодарите релизера, оцените раздачу и оставьте свои комментарий, если Вы скачали Люди в чёрном 3 через торрент бесплатно!!
    Комментировать посты могут только пользователи прошедшие не сложную регистрацию
    Показать сообщения:    


    Люди в чёрном 3 через торрент
    Скачать бесплатно Люди в чёрном 3
    Люди в чёрном 3 скачать торрент
    Люди в чёрном 3 смотреть онлайн
    Cкачать фильм Люди в чёрном 3 бесплатно
    Люди в чёрном 3 скачать торрент в хорошем качестве
    Люди в чёрном 3 смотреть онлайн бесплатно в хорошем качестве
    Вы не можете начинать темы
    Вы не можете отвечать на сообщения
    Вы не можете редактировать свои сообщения
    Вы не можете удалять свои сообщения
    Вы не можете голосовать в опросах
    Вы не можете прикреплять файлы к сообщениям
    Вы можете скачивать файлы
    Люди в чёрном 3 / Men in Black 3 [2012, Фантастика, боевик, комедия, приключения, UHD BDRemux 2160p] AVO [А.Гаврилов] +Дубляж [Лицензия Blu-ray EUR] смотреть онлайн, скачать торрент picoco.icu