Достать ножи: Стеклянная луковица

MVO

Добыча

Дубляж

Уэнсдэй

1 сезон

Тор

Дубляж

13 клиническая

1 сезон

Жестокая ночь

MVO

Одни из нас

1 сезон

Deluxe

pack

Рекомендуем

30

Пиратка

ВАЖНО

ВАЖНО

Ghostwire

Пиратка

jed

RePack

nioh2

RePack

RDR2

RePack

NEED FOR SPEED™ PAYBACK

RePack

скачать торрент

Кинопоиск HD

Острые козырьки 6 сезон

6 сезон

FAR CRY 6

RePack

скачать торрент

Лицензия

скачать торрент

MVO

1

1 сезон

скачать торрент

1 сезон

скачать торрент

Лицензия

  

Город воров / The Town (Бен Аффлек) [2010, Триллер, драма, криминал, UHD BDRemux 2160p] Дубляж [Лицензия EUR]

Город воров через торрент 5050.piratbit.fun

Размер: 47.9 GB | Добавлен: 4 года 11 мес. назад | Торрент скачан:74 раза
Смотреть онлайн | Скачать | Поддержите нас   

10-02-2018 15:51 Город воров Скачать торрент  

Город воров / The TownГод выпуска: 2010
Страна: США
Жанр: Триллер, драма, криминал
Продолжительность: 02:04:42
Перевод: Дубляж - [Лицензия EUR]
Субтитры: Русские (форсированные, полные, полные Гоблин), украинские (R5), английские

Режиссер: Бен Аффлек

rating семпл

В ролях:

Бен Аффлек, Ребекка Холл, Джон Хэмм, Джереми Реннер, Блейк Лайвли, Слэйн, Оуэн Бурк, Титус Уэлливер, Пит Постлетуэйт, Крис Купер, Дэннис МакЛафлин, Корена Чейз, Брайан Сканнелл, Керри Данбар, Тони В.

Описание:

В Бостоне каждый год происходит более 300 ограблений банков. И большинство профессионалов, специализирующихся в этой области, живут в округе под названием Чарльстон общей площадью одна квадратная миля. Дуг МакРэй — один из них, но не стоит «чесать всех под одну гребенку». В отличие от большинства у Дуга был шанс на успех, шанс на то, чтобы не идти по криминальному пути своего отца. Однако вместо этого он стал фактическим лидером группы безжалостных грабителей банков, которые гордятся тем, что берут все, что хотят, и выходят сухими из воды. Единственная семья Дуга — его партнеры по преступному ремеслу, особенно Джем, который, несмотря на всю свою непредсказуемость и дикий нрав, ближе всего к тому, что Дуг понимает под словом «брат». Однако все изменилось после одного дела, в ходе которого Джем ненадолго захватил заложницу — банковского менеджера Клэр Киси. Когда грабители узнают, что девушка живет в самом Чарльстоне, Джем начинает нервничать и решает проверить, как много она успела заметить. Зная, на что способен Джем, Дуг берет это дело на себя. Он разыскивает Клэр, и та даже не представляет, что в их «случайной» встрече нет ничего случайного и что этот очаровательный незнакомец — один из тех людей, которые держали ее жизнь в своих руках всего несколько дней назад. Притяжение между героями перерастает в страстный роман, и Дуг хочет оставить преступную жизнь и навсегда покинуть город воров. Но учитывая, что у него на хвосте федералы под руководством агента Фроули, а Джем начинает сомневаться в его благонадежности, Дуг понимает, что выйти из дела будет непросто и, что еще хуже, это может поставить Клэр под удар. В результате выбор у него невелик: предать друзей или потерять любимую женщину. Экранизация по произведению Чака Хогана «Принц воров».

Качество: UHD BDRemux 2160p
Формат: MKV

Видео: MPEG-H HEVC HDR, 51.8 Mбит/с, 3840x2160, 23.976 кадр/с
Аудио#1: Русский (AC3, 6 ch, 448 Кбит/с) / Blu-ray (EUR)
Аудио#2: Английский (DTS-HD MA, 6 ch, 2722 Кбит/с)
скриншот  скриншот  скриншот  скриншот  

General
Unique ID : 111474090720864752261264555256660262112 (0x53DD2101D604AF241779181CAFA67CE0)
Complete name : D:uTorrentGorod.vorov.2010.2160p.HEVC.UHD.HDR.MediaClub.mkv
Format : Matroska
Format version : Version 4 / Version 2
File size : 47.9 GiB
Duration : 2 h 4 min
Overall bit rate : 55.0 Mb/s
Encoded date : UTC 2018-02-10 09:43:01
Writing application : mkvmerge v19.0.0 ('Brave Captain') 64-bit
Writing library : libebml v1.3.5 + libmatroska v1.4.8
Cover : Yes
Attachments : cover.jpg

Video
ID : 1
Format : HEVC
Format/Info : High Efficiency Video Coding
Format profile : Main [email protected]@High
Codec ID : V_MPEGH/ISO/HEVC
Duration : 2 h 4 min
Bit rate : 51.8 Mb/s
Width : 3 840 pixels
Height : 2 160 pixels
Display aspect ratio : 16:9
Frame rate mode : Constant
Frame rate : 23.976 (24000/1001) FPS
Color space : YUV
Chroma subsampling : 4:2:0 (Type 2)
Bit depth : 10 bits
Bits/(Pixel*Frame) : 0.261
Stream size : 45.1 GiB (94%)
Title : BDRemux, 20160p, HEVC, UDH, HDR by Silverok
Default : Yes
Forced : No
Color range : Limited
Color primaries : BT.2020
Transfer characteristics : PQ
Matrix coefficients : BT.2020 non-constant
Mastering display color primaries : Display P3
Mastering display luminance : min: 0.0050 cd/m2, max: 4000 cd/m2
Maximum Content Light Level : 1800 cd/m2
Maximum Frame-Average Light Level : 1403 cd/m2

Audio #1
ID : 2
Format : AC-3
Format/Info : Audio Coding 3
Codec ID : A_AC3
Duration : 2 h 4 min
Bit rate mode : Constant
Bit rate : 448 kb/s
Channel(s) : 6 channels
Channel positions : Front: L C R, Side: L R, LFE
Sampling rate : 48.0 kHz
Frame rate : 31.250 FPS (1536 SPF)
Bit depth : 16 bits
Compression mode : Lossy
Stream size : 400 MiB (1%)
Title : дублированный (Blu-ray EUR)
Language : Russian
Service kind : Complete Main
Default : Yes
Forced : No

Audio #2
ID : 3
Format : DTS
Format/Info : Digital Theater Systems
Format profile : MA / Core
Codec ID : A_DTS
Duration : 2 h 4 min
Bit rate mode : Variable / Constant
Bit rate : 2 722 kb/s / 1 509 kb/s
Channel(s) : 6 channels
Channel positions : Front: L C R, Side: L R, LFE
Sampling rate : 48.0 kHz
Frame rate : 93.750 FPS (512 SPF)
Bit depth : 24 bits
Compression mode : Lossless / Lossy
Stream size : 2.37 GiB (5%)
Language : English
Default : No
Forced : No

Text #1
ID : 4
Format : UTF-8
Codec ID : S_TEXT/UTF8
Codec ID/Info : UTF-8 Plain Text
Duration : 2 h 0 min
Bit rate : 1 b/s
Count of elements : 25
Stream size : 1.32 KiB (0%)
Title : Forced
Language : Russian
Default : Yes
Forced : Yes

Text #2
ID : 5
Format : UTF-8
Codec ID : S_TEXT/UTF8
Codec ID/Info : UTF-8 Plain Text
Duration : 2 h 0 min
Bit rate : 83 b/s
Count of elements : 1717
Stream size : 73.3 KiB (0%)
Title : Full R5
Language : Russian
Default : No
Forced : No

Text #3
ID : 6
Format : UTF-8
Codec ID : S_TEXT/UTF8
Codec ID/Info : UTF-8 Plain Text
Duration : 1 h 57 min
Bit rate : 95 b/s
Count of elements : 1446
Stream size : 82.5 KiB (0%)
Title : Full Goblin
Language : Russian
Default : No
Forced : No

Text #4
ID : 7
Format : UTF-8
Codec ID : S_TEXT/UTF8
Codec ID/Info : UTF-8 Plain Text
Duration : 2 h 0 min
Bit rate : 87 b/s
Count of elements : 1505
Stream size : 76.6 KiB (0%)
Title : Full R5
Language : Ukrainian
Default : No
Forced : No

Text #5
ID : 8
Format : UTF-8
Codec ID : S_TEXT/UTF8
Codec ID/Info : UTF-8 Plain Text
Duration : 1 h 56 min
Bit rate : 61 b/s
Count of elements : 1475
Stream size : 52.2 KiB (0%)
Title : Full
Language : English
Default : No
Forced : No

Menu
00:00:00.000 : en:01 - Credits
00:10:13.529 : en:02 - New York, New York
00:17:50.736 : en:03 - Sights to See
00:29:19.215 : en:04 - Miss Turnstiles
00:38:45.823 : en:05 - In the Flesh. Taxi!
00:50:42.622 : en:06 - Remarkable Specimen
00:58:40.934 : en:07 - Prehistoric Man
01:09:08.060 : en:08 - All Broken Up
01:17:31.271 : en:09 - Museum Mishmash
01:28:09.117 : en:10 - Come Up to My Place
01:37:58.664 : en:11 - At Hildy's; Lucy Schmeeler
01:48:42.307 : en:12 - Symphonic Hall
01:57:48.269 : en:13 - Small-Town Reunion




Скачать Город воров через торрент http://img12.lostpic.net/2018/02/10/abe0a9825cd3c4234b995c6aee375d87.jpg Скачать, смотреть онлайн Город воров бесплантно в хорошем качестве Описание: В Бостоне каждый год происходит более 300 ограблений банков. И большинство профессионалов, специализирующихся в этой области, ... 9.8 10 5
Торрент: Зарегистрирован [2018-02-10 15:51] · скачан: 74 раз
Статус: √ проверено
Размер: 47.9 GB
Как cкачать? Как скачать Город воров через торрент | UTorrent

% Раздел Тема Автор DL S | L
# Фильмы (HD 720p, 1080p) (48-60 fps) [ 5.48 GB ] Город воров / The Town | | 1080p 10 bit 60 FPS, DVO dd2d3 Скачать
3 | 0
T Релизы по Парсеру [Игры, Сериалы и Фильмы и другое...] [ 16.41 GB ] Город воров / The Town | AVO | 1080p -Lexx- Скачать
1 | 0
Фильмы с авторской озвучкой [ 1.46 GB ] Город воров / The Town | AVO | BDRip Liloo_Foofyga Скачать
1 | 0
Фильмы [HD 720p, 1080p] (Хороший звук DUB, MVO) [ 5.8 GB ] Город воров / The Town | Дубляж + Оригинал | 720p, Дубляж + Оригинал [email protected] Скачать
1 | 0
Фильмы 2010 [ 2.06 GB ] Город воров / Town, The | | HDRip Venxxx Скачать
1 | 0
Фильмы 2010 [ 1.6 GB ] Город воров / The Town | | HDRip azagoth_666 Скачать
1 | 0
Фильмы [HD 720p, 1080p] (Хороший звук DUB, MVO) [ 5.72 GB ] Город воров / The Town | | 720p L_E_X Скачать
1 | 0

28-11-2019 20:33  


Отключить вcю реклaмy на сайте, в т.ч. и в плеере онлайн просмотра!

    Дорогой пользователь! Огромная просьба, поблагодарите релизера, оцените раздачу и оставьте свои комментарий, если Вы скачали Город воров через торрент бесплатно!!
    Комментировать посты могут только пользователи прошедшие не сложную регистрацию
    Показать сообщения:    


    Город воров через торрент
    Скачать бесплатно Город воров
    Город воров скачать торрент
    Город воров смотреть онлайн
    Cкачать фильм Город воров бесплатно
    Город воров скачать торрент в хорошем качестве
    Город воров смотреть онлайн бесплатно в хорошем качестве
    Вы не можете начинать темы
    Вы не можете отвечать на сообщения
    Вы не можете редактировать свои сообщения
    Вы не можете удалять свои сообщения
    Вы не можете голосовать в опросах
    Вы не можете прикреплять файлы к сообщениям
    Вы можете скачивать файлы
    Город воров / The Town [2010, Триллер, драма, криминал, UHD BDRemux 2160p] Дубляж [Лицензия EUR] смотреть онлайн, скачать торрент picoco.icu