Достать ножи: Стеклянная луковица

MVO

Добыча

Дубляж

Уэнсдэй

1 сезон

Тор

Дубляж

13 клиническая

1 сезон

Жестокая ночь

MVO

Одни из нас

1 сезон

Deluxe

pack

Рекомендуем

30

Пиратка

ВАЖНО

ВАЖНО

Ghostwire

Пиратка

jed

RePack

nioh2

RePack

RDR2

RePack

NEED FOR SPEED™ PAYBACK

RePack

скачать торрент

Кинопоиск HD

Острые козырьки 6 сезон

6 сезон

FAR CRY 6

RePack

скачать торрент

Лицензия

скачать торрент

MVO

1

1 сезон

скачать торрент

1 сезон

скачать торрент

Лицензия

  

Дюнкерк / Dunkirk (Кристофер Нолан) [2017, военный, драма, история, UHD BD Remux 2160p] 2xAVO [Есарев, Гаврилов] +2xDUB (rus, ukr) [IMAX] [Sergesha, Лицензия BD CEE]

Дюнкерк через торрент 5050.piratbit.fun

Размер: 52.79 GB | Добавлен: 4 года 11 мес. назад | Торрент скачан:140 раз
Смотреть онлайн | Скачать | Поддержите нас   

10-02-2018 21:19 Дюнкерк Скачать торрент  

Дюнкерк / DunkirkГод выпуска: 2017
Страна: Нидерланды, Великобритания, Франция, США
Жанр: военный, драма, история
Продолжительность: 01:46:38
Перевод: Дублированный | Лицензия BD CEE, Авторский (Есарев, Гаврилов)
Субтитры: Русские (Forced, Full), украинские (Forced), английские (Full, SDH)

Режиссер: Кристофер Нолан

rating

В ролях:

Том Харди, Финн Уайтхед, Том Глинн-Карни, Джек Лауден, Гарри Стайлс, Анайрин Барнард, Джеймс Д’Арси, Барри Кеоган, Кеннет Брана, Киллиан Мёрфи, Марк Райлэнс

Описание:

Фильм расскажет историю чудесного спасения более трехсот тысяч солдат в ходе Дюнкеркской операции, имевшей место в начале Второй мировой войны. События начинаются с окружения сотен тысяч британских и союзных войск силами противника. Пойманные в ловушку на пляже, и находясь спиной к морю, они сталкиваются лицом к лицу с неразрешимой ситуацией, тем временем как тиски противника сжимаются все сильнее и сильнее.

Качество: UHD BD Remux 2160p
Формат: MKV

Видео: H.265/HEVC, 3840x2160p, (16:9), 58,2 Мбит/сек, 23.976 fps
Аудио#1: AC-3, 48.0 KHz, 6 ch, 448 Kbps, CBR | Русский | Дублированный, BD EUR |
Аудио#2: DTS MA, 48.0 KHz, 6 ch, 2404 Kbps | Русский | Дублированный, DTS-HD | (Sergesha)
Аудио#3: DTS MA, 48.0 KHz, 6 ch, 2427 Kbps | Русский | Авторский, Д. Есарев |
Аудио#4: DTS MA, 48.0 KHz, 6 ch, 2404 Kbps | Русский | Авторский, А.Гаврилов |
Аудио#5: AC-3, 48.0 KHz, 2 ch, 192 Kbps, CBR |Украинский | Дублированный, Megogo |
Аудио#6: DTS MA, 48.0 KHz, 6 ch, 2358 Kbps |Украинский | Дублированный |
Аудио#7: DTS MA, 48.0 KHz, 6 ch, 2411 Kbps |Английский | Original |
скриншот  скриншот  скриншот  скриншот  

Общее
Уникальный идентификатор : 298359537739609497226380075551326286615 (0xE075F4F05C885CAB487E899634853317)
Полное имя : Dunkirk.2017.2160p.BluRay.REMUX.HEVC.HDR.DTS-HD.MA.AC3.5.1.IVA(3xRUS.UKR.ENG).mkv
Формат : Matroska
Версия формата : Version 4 / Version 2
Размер файла : 52,8 Гбайт
Продолжительность : 1 ч. 46 м.
Общий поток : 70,9 Мбит/сек
Название фильма : Dunkirk.2017.2160p.BluRay.REMUX.HEVC.HDR.DTS-HD.MA.AC3.5.1.IVA(3xRUS.UKR.ENG)
Дата кодирования : UTC 2018-02-10 13:19:22
Программа кодирования : mkvmerge v19.0.0 ('Brave Captain') 64-bit
Библиотека кодирования : libebml v1.3.5 + libmatroska v1.4.8
Обложка : Yes

Видео
Идентификатор : 1
Формат : HEVC
Формат/Информация : High Efficiency Video Coding
Профиль формата : Main [email protected]@High
Идентификатор кодека : V_MPEGH/ISO/HEVC
Продолжительность : 1 ч. 46 м.
Битрейт : 58,2 Мбит/сек
Ширина : 3840 пикселей
Высота : 2160 пикселей
Соотношение сторон : 16:9
Режим частоты кадров : Постоянный
Частота кадров : 23,976 (24000/1001) кадра/сек
Цветовое пространство : YUV
Субдискретизация насыщенности : 4:2:0 (Type 2)
Битовая глубина : 10 бит
Бит/(Пиксели*Кадры) : 0.293
Размер потока : 43,4 Гбайт (82%)
Заголовок : Dunkirk.2017.2160p
Default : Да
Forced : Нет
Цветовой диапазон : Limited
Основные цвета : BT.2020
Характеристики трансфера : PQ
Коэффициенты матрицы : BT.2020 non-constant
MasteringDisplay_ColorPrimaries : Display P3
MasteringDisplay_Luminance : min: 0.0050 cd/m2, max: 4000 cd/m2
MaxCLL : 323 cd/m2
MaxFALL : 144 cd/m2

Аудио #1
Идентификатор : 2
Формат : AC-3
Формат/Информация : Audio Coding 3
Идентификатор кодека : A_AC3
Продолжительность : 1 ч. 46 м.
Вид битрейта : Постоянный
Битрейт : 448 Кбит/сек
Каналы : 6 каналов
Расположение каналов : Front: L C R, Side: L R, LFE
Частота : 48,0 КГц
Частота кадров : 31,250 кадров/сек (1536 SPF)
Битовая глубина : 16 бит
Метод сжатия : С потерями
Размер потока : 342 Мбайт (1%)
Заголовок : | Дублированный, BD |
Язык : Russian
ServiceKind/String : Complete Main
Default : Да
Forced : Нет

Аудио #2
Идентификатор : 3
Формат : DTS
Формат/Информация : Digital Theater Systems
Профиль формата : MA / Core
Идентификатор кодека : A_DTS
Продолжительность : 1 ч. 46 м.
Вид битрейта : Переменный / Постоянный
Битрейт : 2404 Кбит/сек / 1509 Кбит/сек
Каналы : 6 каналов
Расположение каналов : Front: L C R, Side: L R, LFE
Частота : 48,0 КГц
Частота кадров : 93,750 кадра/сек (512 SPF)
Битовая глубина : 16 бит
Метод сжатия : Без потерь / Lossy
Размер потока : 1,79 Гбайт (3%)
Заголовок : | Дублированный, DTS-HD |
Язык : Russian
Default : Нет
Forced : Нет

Аудио #3
Идентификатор : 4
Формат : DTS
Формат/Информация : Digital Theater Systems
Профиль формата : MA / Core
Идентификатор кодека : A_DTS
Продолжительность : 1 ч. 46 м.
Вид битрейта : Переменный / Постоянный
Битрейт : 2427 Кбит/сек / 1509 Кбит/сек
Каналы : 6 каналов
Расположение каналов : Front: L C R, Side: L R, LFE
Частота : 48,0 КГц
Частота кадров : 93,750 кадра/сек (512 SPF)
Битовая глубина : 16 бит
Метод сжатия : Без потерь / Lossy
Размер потока : 1,81 Гбайт (3%)
Заголовок : | Авторский, Д. Есарев |
Язык : Russian
Default : Нет
Forced : Нет

Аудио #4
Идентификатор : 5
Формат : DTS
Формат/Информация : Digital Theater Systems
Профиль формата : MA / Core
Идентификатор кодека : A_DTS
Продолжительность : 1 ч. 46 м.
Вид битрейта : Переменный / Постоянный
Битрейт : 2404 Кбит/сек / 1509 Кбит/сек
Каналы : 6 каналов
Расположение каналов : Front: L C R, Side: L R, LFE
Частота : 48,0 КГц
Частота кадров : 93,750 кадра/сек (512 SPF)
Битовая глубина : 16 бит
Метод сжатия : Без потерь / Lossy
Размер потока : 1,79 Гбайт (3%)
Заголовок : | Авторский, А.Гаврилов |
Язык : Russian
Default : Нет
Forced : Нет

Аудио #5
Идентификатор : 6
Формат : AC-3
Формат/Информация : Audio Coding 3
Идентификатор кодека : A_AC3
Продолжительность : 1 ч. 46 м.
Вид битрейта : Постоянный
Битрейт : 192 Кбит/сек
Каналы : 2 канала
Расположение каналов : Front: L R
Частота : 48,0 КГц
Частота кадров : 31,250 кадров/сек (1536 SPF)
Битовая глубина : 16 бит
Метод сжатия : С потерями
Размер потока : 146 Мбайт (0%)
Заголовок : | Дублированный, UKR, Megogo |
Язык : Ukrainian
ServiceKind/String : Complete Main
Default : Нет
Forced : Нет

Аудио #6
Идентификатор : 7
Формат : DTS
Формат/Информация : Digital Theater Systems
Профиль формата : MA / Core
Идентификатор кодека : A_DTS
Продолжительность : 1 ч. 46 м.
Вид битрейта : Переменный / Постоянный
Битрейт : 2358 Кбит/сек / 1509 Кбит/сек
Каналы : 6 каналов
Расположение каналов : Front: L C R, Side: L R, LFE
Частота : 48,0 КГц
Частота кадров : 93,750 кадра/сек (512 SPF)
Битовая глубина : 16 бит
Метод сжатия : Без потерь / Lossy
Размер потока : 1,76 Гбайт (3%)
Заголовок : | Дублированный, UKR, DTS-HD |
Язык : Ukrainian
Default : Нет
Forced : Нет

Аудио #7
Идентификатор : 8
Формат : DTS
Формат/Информация : Digital Theater Systems
Профиль формата : MA / Core
Идентификатор кодека : A_DTS
Продолжительность : 1 ч. 46 м.
Вид битрейта : Переменный / Постоянный
Битрейт : 2411 Кбит/сек / 1509 Кбит/сек
Каналы : 6 каналов
Расположение каналов : Front: L C R, Side: L R, LFE
Частота : 48,0 КГц
Частота кадров : 93,750 кадра/сек (512 SPF)
Битовая глубина : 16 бит
Метод сжатия : Без потерь / Lossy
Размер потока : 1,80 Гбайт (3%)
Заголовок : | Original |
Язык : English
Default : Нет
Forced : Нет

Текст #1
Идентификатор : 9
Формат : UTF-8
Идентификатор кодека : S_TEXT/UTF8
Идентификатор кодека/Информация : UTF-8 Plain Text
Продолжительность : 1 ч. 40 м.
Битрейт : 2 бит/сек
ElementCount : 30
Размер потока : 1,57 Кбайт (0%)
Заголовок : Forced
Язык : Russian
Default : Да
Forced : Да

Текст #2
Идентификатор : 10
Формат : UTF-8
Идентификатор кодека : S_TEXT/UTF8
Идентификатор кодека/Информация : UTF-8 Plain Text
Продолжительность : 1 ч. 46 м.
Битрейт : 32 бит/сек
ElementCount : 643
Размер потока : 25,5 Кбайт (0%)
Заголовок : Full
Язык : Russian
Default : Нет
Forced : Нет

Текст #3
Идентификатор : 11
Формат : UTF-8
Идентификатор кодека : S_TEXT/UTF8
Идентификатор кодека/Информация : UTF-8 Plain Text
Продолжительность : 1 ч. 40 м.
Битрейт : 1 бит/сек
ElementCount : 14
Размер потока : 891 байт (0%)
Заголовок : Forced
Язык : Ukrainian
Default : Нет
Forced : Да

Текст #4
Идентификатор : 12
Формат : UTF-8
Идентификатор кодека : S_TEXT/UTF8
Идентификатор кодека/Информация : UTF-8 Plain Text
Продолжительность : 1 ч. 40 м.
Битрейт : 2 бит/сек
ElementCount : 22
Размер потока : 1,49 Кбайт (0%)
Заголовок : Forced v2
Язык : Ukrainian
Default : Нет
Forced : Нет

Текст #5
Идентификатор : 13
Формат : UTF-8
Идентификатор кодека : S_TEXT/UTF8
Идентификатор кодека/Информация : UTF-8 Plain Text
Продолжительность : 1 ч. 37 м.
Битрейт : 30 бит/сек
ElementCount : 859
Размер потока : 21,7 Кбайт (0%)
Заголовок : Full
Язык : English
Default : Нет
Forced : Нет

Текст #6
Идентификатор : 14
Формат : UTF-8
Идентификатор кодека : S_TEXT/UTF8
Идентификатор кодека/Информация : UTF-8 Plain Text
Продолжительность : 1 ч. 37 м.
Битрейт : 30 бит/сек
ElementCount : 860
Размер потока : 21,7 Кбайт (0%)
Заголовок : SDH
Язык : English
Default : Нет
Forced : Нет

Меню
00:00:00.000 : en:Chapter 1
00:08:51.364 : en:Chapter 2
00:20:13.752 : en:Chapter 3
00:20:13.753 : en:Chapter 4
00:29:07.618 : en:Chapter 5
00:29:07.619 : en:Chapter 6
00:42:35.260 : en:Chapter 7 / en:Chapter 8
00:52:48.206 : en:Chapter 9
01:04:32.827 : en:Chapter 10
01:12:50.823 : en:Chapter 11 / en:Chapter 12
01:25:55.024 : en:Chapter 13
01:33:23.345 : en:Chapter 14 / en:Chapter 15
01:39:13.904 : en:Chapter 16
01:39:13.905 : en:Chapter 17
01:46:38.015 : en:Chapter 18




Скачать Дюнкерк через торрент http://img12.lostpic.net/2018/02/11/26c80ba305edf26d2abb5be23c827afa.jpg Скачать, смотреть онлайн Дюнкерк бесплантно в хорошем качестве Описание: Фильм расскажет историю чудесного спасения более трехсот тысяч солдат в ходе Дюнкеркской операции, имевшей место в начале Второй ... 9.7 10 7
Info! Серебряная раздача, засчитывается только 50% скачанного.
Торрент: Зарегистрирован [2018-02-10 21:19] · скачан: 140 раз
Статус: √ проверено
Размер: 52.79 GB
Как cкачать? Как скачать Дюнкерк через торрент | UTorrent

% Раздел Тема Автор DL S | L
Фильмы (HD 720p, 1080p) (48-60 fps) [ 15.65 GB ] Дюнкерк / Dunkirk | Дубляж | 1080p / 60 FPS, IMAX, Дубляж, Оригинал Tiberiumsun69 Скачать
1 | 0
Ultra HD (UHD: 2K, 4K, 8K) [ 103.12 GB ] Дюнкерк / Dunkirk | Лицензия | 2160p sheker187 Скачать
1 | 0
Ultra HD (UHD: 2K, 4K, 8K) [ 55.96 GB ] Дюнкерк / Dunkirk | Лицензия | 2160p sheker187 Скачать
1 | 0
T Фильмы с украинским озвучиванием [ 1.45 GB ] Дюнкерк / Dunkirk | DUB | BDRip killermax2013 Скачать
1 | 0
Фильмы 2017 [DVDrip, WEB-DLRip, HDrip] (DUB, MVO) [ 1.51 GB ] Дюнкерк / Dunkirk | Лицензия | BDRip-AVC sokol_ok Скачать
2 | 0
Фильмы 2017 [DVDrip, WEB-DLRip, HDrip] (DUB, MVO) [ 2.18 GB ] Дюнкерк / Dunkirk | Лицензия | BDRip Twi7ter Скачать
1 | 0
Фильмы с авторской озвучкой [ 1.47 GB ] Дюнкерк / Dunkirk | AVO | BDRip killermax2013 Скачать
2 | 0

28-11-2019 20:33  


Отключить вcю реклaмy на сайте, в т.ч. и в плеере онлайн просмотра!

13-05-2018 03:52 Дюнкерк Скачать торрент  

Чем воспроизводить то? ВЛК черный экран под плеер воспроизводит как звуковую дорожку, кмп плеер вылетает, арксофт тотал медиа театр тоже как звук его воспр.!!?



    Дорогой пользователь! Огромная просьба, поблагодарите релизера, оцените раздачу и оставьте свои комментарий, если Вы скачали Дюнкерк через торрент бесплатно!!
    Комментировать посты могут только пользователи прошедшие не сложную регистрацию
    Показать сообщения:    


    Дюнкерк через торрент
    Скачать бесплатно Дюнкерк
    Дюнкерк скачать торрент
    Дюнкерк смотреть онлайн
    Cкачать фильм Дюнкерк бесплатно
    Дюнкерк скачать торрент в хорошем качестве
    Дюнкерк смотреть онлайн бесплатно в хорошем качестве
    Вы не можете начинать темы
    Вы не можете отвечать на сообщения
    Вы не можете редактировать свои сообщения
    Вы не можете удалять свои сообщения
    Вы не можете голосовать в опросах
    Вы не можете прикреплять файлы к сообщениям
    Вы можете скачивать файлы
    Дюнкерк / Dunkirk [2017, военный, драма, история, UHD BD Remux 2160p] 2xAVO [Есарев, Гаврилов] +2xDUB [IMAX] [Sergesha, Лицензия BD CEE] смотреть онлайн, скачать торрент picoco.icu