Достать ножи: Стеклянная луковица

MVO

Добыча

Дубляж

Уэнсдэй

1 сезон

Тор

Дубляж

13 клиническая

1 сезон

Жестокая ночь

MVO

Одни из нас

1 сезон

Deluxe

pack

Рекомендуем

30

Пиратка

ВАЖНО

ВАЖНО

Ghostwire

Пиратка

jed

RePack

nioh2

RePack

RDR2

RePack

NEED FOR SPEED™ PAYBACK

RePack

скачать торрент

Кинопоиск HD

Острые козырьки 6 сезон

6 сезон

FAR CRY 6

RePack

скачать торрент

Лицензия

скачать торрент

MVO

1

1 сезон

скачать торрент

1 сезон

скачать торрент

Лицензия

  

Kingsman: Золотое кольцо / Kingsman: The Golden Circle (Мэттью Вон) [2017, боевик, комедия, приключения, UHD BDRemux 2160p] AVO [Ю.Сербин] +Дубляж (rus, ukr) [Лицензия]

Kingsman: Золотое кольцо через торрент 5050.piratbit.fun

Размер: 58.21 GB | Добавлен: 4 года 11 мес. назад | Торрент скачан:89 раз
Смотреть онлайн | Скачать | Поддержите нас   

12-02-2018 09:25 Kingsman: Золотое кольцо Скачать торрент  

Kingsman: Золотое кольцо / Kingsman: The Golden Circle
Год выпуска: 2017
Страна: Великобритания США
Жанр: боевик, комедия, приключения
Продолжительность: 02:21:02

Перевод:

#1: Дублированный | Лицензия
#2: Авторский | Юрий Сербин

Субтитры: Russian (Forced, Full), Ukrainian (Forced, Full), English (Full, SDH)

Режиссер: Мэттью Вон

rating

В ролях:


Тэрон Эджертон (Eggsy), Колин Фёрт (Harry Hart), Марк Стронг (Merlin), Джулианна Мур (Poppy), Холли Берри (Ginger), Педро Паскаль (Whiskey), Ченнинг Татум (Tequila), Джефф Бриджес (Champ), Эдвард Холкрофт (Charlie), Ханна Альстрём (Princess Tilde), Гордон Александр (Kingsman Cab Driver), Кэлвин Демба (Brandon)
Описание:

Когда штаб-квартиры секретной службы «Kingsman» уничтожены, и весь мир оказался в заложниках у неизвестных, британские суперагенты обнаруживают, что в один день вместе с их организацией была еще создана американская разведка — «Statesman». Теперь эти две элитные спецслужбы должны объединиться и бросить вызов общему безжалостному врагу, чтобы спасти мир, то есть заняться тем, что для Эггси становится обычным делом…
Качество: UHD BDRemux 2160p
Формат: MKV

Видео: MPEG-H HEVC HDR Video, 3840x2160, 36.0 Mbit/s, 23.976 fps
Аудио#1: RUS| | DTS, 48.0 kHz, 6 ch, 768 kb/s, CBR | Дублированный, BD CEE |
Аудио#2: RUS| | AC-3, 48.0 kHz, 6 ch, 448 kb/s, CBR | Дублированный, BD CEE |
Аудио#3: RUS| | DTS MA, 48.0 kHz, 8 ch, 5 119 kb/s | Дублированный, DTS-HD | (Sergesha)
Аудио#4: RUS| | DTS MA, 48.0 kHz, 8 ch, 5 034 kb/s | Авторский, Ю.Сербин |
Аудио#5: UKR| | AC-3, 48.0 kHz, 6 ch, 448 kb/s, CBR | Дублированный, BD CEE |
Аудио#6: ENG| | DTS MA, 48.0 kHz, 8 ch, 5 129 kb/s
Аудио#7: ENG| | AC-3, 48.0 kHz, 6 ch, 640 kb/s, CBR
скриншот  скриншот  скриншот  скриншот  скриншот  скриншот  

Общее
Уникальный идентификатор : 298205840464686324722610525831423425856 (0xE0585B1404C5AE59C617868C14B97D40)
Полное имя : Kingsman.The.Golden.Circle.2017.1080p.BluRay.REMUX.AVC.DTS-HD.IVA(2xRUS.UKR.ENG).mkv
Формат : Matroska
Версия формата : Version 4 / Version 2
Размер файла : 38,7 Гбайт
Продолжительность : 2 ч. 21 м.
Режим общего битрейта : Переменный
Общий поток : 39,3 Мбит/сек
Название фильма : Kingsman.The.Golden.Circle.2017.1080p.BluRay.REMUX.AVC.DTS-HD.IVA(2xRUS.UKR.ENG)
Дата кодирования : UTC 2018-02-11 12:06:19
Программа кодирования : mkvmerge v19.0.0 ('Brave Captain') 64-bit
Библиотека кодирования : libebml v1.3.5 + libmatroska v1.4.8
Обложка : Yes

Видео
Идентификатор : 1
Формат : AVC
Формат/Информация : Advanced Video Codec
Профиль формата : [email protected]
Настройки формата : CABAC / 4 Ref Frames
Параметр CABAC формата : Да
Параметр RefFrames формата : 4 кадра
Идентификатор кодека : V_MPEG4/ISO/AVC
Продолжительность : 2 ч. 21 м.
Вид битрейта : Переменный
Битрейт : 21,7 Мбит/сек
Максимальный битрейт : 33,5 Мбит/сек
Ширина : 1920 пикселей
Высота : 1080 пикселей
Соотношение сторон : 16:9
Режим частоты кадров : Постоянный
Частота кадров : 23,976 (24000/1001) кадра/сек
Цветовое пространство : YUV
Субдискретизация насыщенности : 4:2:0
Битовая глубина : 8 бит
Тип развёртки : Прогрессивная
Бит/(Пиксели*Кадры) : 0.436
Размер потока : 21,4 Гбайт (55%)
Заголовок : Kingsman.The.Golden.Circle.2017.1080p.BluRay.AVC
Язык : English
Default : Да
Forced : Нет

Аудио #1
Идентификатор : 2
Формат : DTS
Формат/Информация : Digital Theater Systems
Идентификатор кодека : A_DTS
Продолжительность : 2 ч. 21 м.
Вид битрейта : Постоянный
Битрейт : 768 Кбит/сек
Каналы : 6 каналов
Расположение каналов : Front: L C R, Side: L R, LFE
Частота : 48,0 КГц
Частота кадров : 93,750 кадра/сек (512 SPF)
Битовая глубина : 24 бит
Метод сжатия : С потерями
Размер потока : 775 Мбайт (2%)
Заголовок : | Дублированный, BD CEE |
Язык : Russian
Default : Да
Forced : Нет

Аудио #2
Идентификатор : 3
Формат : AC-3
Формат/Информация : Audio Coding 3
Идентификатор кодека : A_AC3
Продолжительность : 2 ч. 21 м.
Вид битрейта : Постоянный
Битрейт : 448 Кбит/сек
Каналы : 6 каналов
Расположение каналов : Front: L C R, Side: L R, LFE
Частота : 48,0 КГц
Частота кадров : 31,250 кадров/сек (1536 SPF)
Битовая глубина : 16 бит
Метод сжатия : С потерями
Размер потока : 452 Мбайт (1%)
Заголовок : | Дублированный, BD CEE |
Язык : Russian
ServiceKind/String : Complete Main
Default : Нет
Forced : Нет

Аудио #3
Идентификатор : 4
Формат : DTS
Формат/Информация : Digital Theater Systems
Профиль формата : MA / Core
Идентификатор кодека : A_DTS
Продолжительность : 2 ч. 21 м.
Вид битрейта : Переменный / Постоянный
Битрейт : 5119 Кбит/сек / 1509 Кбит/сек
Каналы : 8 каналов / 6 каналов
Расположение каналов : Front: L C R, Side: L R, Back: L R, LFE / Front: L C R, Side: L R, LFE
Частота : 48,0 КГц
Частота кадров : 93,750 кадра/сек (512 SPF)
Битовая глубина : 24 бит
Метод сжатия : Без потерь / Lossy
Размер потока : 5,04 Гбайт (13%)
Заголовок : | Дублированный, DTS-HD |
Язык : Russian
Default : Нет
Forced : Нет

Аудио #4
Идентификатор : 5
Формат : DTS
Формат/Информация : Digital Theater Systems
Профиль формата : MA / Core
Идентификатор кодека : A_DTS
Продолжительность : 2 ч. 21 м.
Вид битрейта : Переменный / Постоянный
Битрейт : 5034 Кбит/сек / 1509 Кбит/сек
Каналы : 8 каналов / 6 каналов
Расположение каналов : Front: L C R, Side: L R, Back: L R, LFE / Front: L C R, Side: L R, LFE
Частота : 48,0 КГц
Частота кадров : 93,750 кадра/сек (512 SPF)
Битовая глубина : 24 бит
Метод сжатия : Без потерь / Lossy
Размер потока : 4,96 Гбайт (13%)
Заголовок : | Авторский, Ю.Сербин |
Язык : Russian
Default : Нет
Forced : Нет

Аудио #5
Идентификатор : 6
Формат : AC-3
Формат/Информация : Audio Coding 3
Идентификатор кодека : A_AC3
Продолжительность : 2 ч. 21 м.
Вид битрейта : Постоянный
Битрейт : 448 Кбит/сек
Каналы : 6 каналов
Расположение каналов : Front: L C R, Side: L R, LFE
Частота : 48,0 КГц
Частота кадров : 31,250 кадров/сек (1536 SPF)
Битовая глубина : 16 бит
Метод сжатия : С потерями
Размер потока : 452 Мбайт (1%)
Заголовок : | Дублированный, BD CEE |
Язык : Ukrainian
ServiceKind/String : Complete Main
Default : Нет
Forced : Нет

Аудио #6
Идентификатор : 7
Формат : DTS
Формат/Информация : Digital Theater Systems
Профиль формата : MA / Core
Идентификатор кодека : A_DTS
Продолжительность : 2 ч. 21 м.
Вид битрейта : Переменный / Постоянный
Битрейт : 5129 Кбит/сек / 1509 Кбит/сек
Каналы : 8 каналов / 6 каналов
Расположение каналов : Front: L C R, Side: L R, Back: L R, LFE / Front: L C R, Side: L R, LFE
Частота : 48,0 КГц
Частота кадров : 93,750 кадра/сек (512 SPF)
Битовая глубина : 24 бит
Метод сжатия : Без потерь / Lossy
Размер потока : 5,05 Гбайт (13%)
Заголовок : | Original |
Язык : English
Default : Нет
Forced : Нет

Аудио #7
Идентификатор : 8
Формат : AC-3
Формат/Информация : Audio Coding 3
Идентификатор кодека : A_AC3
Продолжительность : 2 ч. 21 м.
Вид битрейта : Постоянный
Битрейт : 640 Кбит/сек
Каналы : 6 каналов
Расположение каналов : Front: L C R, Side: L R, LFE
Частота : 48,0 КГц
Частота кадров : 31,250 кадров/сек (1536 SPF)
Битовая глубина : 16 бит
Метод сжатия : С потерями
Размер потока : 646 Мбайт (2%)
Заголовок : | AC3 CORE |
Язык : English
ServiceKind/String : Complete Main
Default : Нет
Forced : Нет

Текст #1
Идентификатор : 9
Формат : UTF-8
Идентификатор кодека : S_TEXT/UTF8
Идентификатор кодека/Информация : UTF-8 Plain Text
Продолжительность : 2 ч. 19 м.
Битрейт : 0 бит/сек
ElementCount : 14
Размер потока : 418 байт (0%)
Заголовок : Forced
Язык : Russian
Default : Да
Forced : Да

Текст #2
Идентификатор : 10
Формат : UTF-8
Идентификатор кодека : S_TEXT/UTF8
Идентификатор кодека/Информация : UTF-8 Plain Text
Продолжительность : 2 ч. 13 м.
Битрейт : 91 бит/сек
ElementCount : 1847
Размер потока : 89,3 Кбайт (0%)
Заголовок : Full
Язык : Russian
Default : Нет
Forced : Нет

Текст #3
Идентификатор : 11
Формат : UTF-8
Идентификатор кодека : S_TEXT/UTF8
Идентификатор кодека/Информация : UTF-8 Plain Text
Продолжительность : 1 ч. 58 м.
Битрейт : 0 бит/сек
ElementCount : 7
Размер потока : 296 байт (0%)
Заголовок : Forced
Язык : Ukrainian
Default : Нет
Forced : Да

Текст #4
Идентификатор : 12
Формат : UTF-8
Идентификатор кодека : S_TEXT/UTF8
Идентификатор кодека/Информация : UTF-8 Plain Text
Продолжительность : 2 ч. 19 м.
Битрейт : 85 бит/сек
ElementCount : 1727
Размер потока : 87,3 Кбайт (0%)
Заголовок : Full
Язык : Ukrainian
Default : Нет
Forced : Нет

Текст #5
Идентификатор : 13
Формат : UTF-8
Идентификатор кодека : S_TEXT/UTF8
Идентификатор кодека/Информация : UTF-8 Plain Text
Продолжительность : 2 ч. 13 м.
Битрейт : 55 бит/сек
ElementCount : 1882
Размер потока : 54,2 Кбайт (0%)
Заголовок : Full
Язык : English
Default : Нет
Forced : Нет

Текст #6
Идентификатор : 14
Формат : UTF-8
Идентификатор кодека : S_TEXT/UTF8
Идентификатор кодека/Информация : UTF-8 Plain Text
Продолжительность : 2 ч. 13 м.
Битрейт : 60 бит/сек
ElementCount : 2142
Размер потока : 58,8 Кбайт (0%)
Заголовок : SDH
Язык : English
Default : Нет
Forced : Нет

Меню
00:00:00.000 : en:Chapter 01
00:04:51.958 : en:Chapter 02
00:09:39.453 : en:Chapter 03
00:13:36.607 : en:Chapter 04
00:18:54.299 : en:Chapter 05
00:24:57.287 : en:Chapter 06
00:28:43.346 : en:Chapter 07
00:32:52.303 : en:Chapter 08
00:39:18.731 : en:Chapter 09
00:43:21.849 : en:Chapter 10
00:48:26.570 : en:Chapter 11
00:53:54.105 : en:Chapter 12
00:58:31.257 : en:Chapter 13
01:05:04.901 : en:Chapter 14
01:09:52.521 : en:Chapter 15
01:13:34.743 : en:Chapter 16
01:19:41.860 : en:Chapter 17
01:23:45.103 : en:Chapter 18
01:28:55.288 : en:Chapter 19
01:33:25.224 : en:Chapter 20
01:40:14.758 : en:Chapter 21
01:45:03.255 : en:Chapter 22
01:49:38.488 : en:Chapter 23
01:55:15.992 : en:Chapter 24
02:01:40.835 : en:Chapter 25
02:05:44.036 : en:Chapter 26
02:12:36.406 : en:Chapter 27
02:15:15.273 : en:Chapter 28




Скачать Kingsman: Золотое кольцо через торрент http://img12.lostpic.net/2018/01/10/3e61f0aef96828ab1fc33b4cc36b7a49.jpg Скачать, смотреть онлайн Kingsman: Золотое кольцо бесплантно в хорошем качестве Описание: Когда штаб-квартиры секретной службы «Kingsman» уничтожены, и весь мир оказался в заложниках у неизвестных, британские ... 10 10 3
Торрент: Зарегистрирован [2018-02-12 09:25] · скачан: 89 раз
Статус: √ проверено
Размер: 58.21 GB
Как cкачать? Как скачать Kingsman: Золотое кольцо через торрент | UTorrent

% Раздел Тема Автор DL S | L
Ultra HD (UHD: 2K, 4K, 8K) [ 67.46 GB ] Kingsman: Золотое кольцо / Kingsman: The Golden Circle | Лицензия | 2160p sheker187 Скачать
1 | 0
Фильмы (Blu-ray, BD-Remux, HDDVD) [ 47.83 GB ] Kingsman: Золотое кольцо / Kingsman: The Golden Circle | Лицензия | BD Remux 1080p bober100 Скачать
1 | 1
Фильмы [HD 720p, 1080p] (Хороший звук DUB, MVO) [ 7.17 GB ] Kingsman: Золотое кольцо / Kingsman: The Golden Circle | Лицензия | 720p bober100 Скачать
3 | 0
Фильмы 2017 [DVDrip, WEB-DLRip, HDrip] (DUB, MVO) [ 2.19 GB ] Kingsman: Золотое кольцо / Kingsman: The Golden Circle | Лицензия | BDRip-AVC sokol_ok Скачать
3 | 0
Фильмы с авторской озвучкой [ 2.99 GB ] Kingsman: Золотое кольцо / Kingsman: The Golden Circle | AVO | BDRip-AVC Enigma2010 Скачать
1 | 2
Фильмы (HD 720p, 1080p) (48-60 fps) [ 16.74 GB ] Kingsman: Золотое кольцо / Kingsman: The Golden Circle | iTunes | 1080p / 60 FPS, Dub/iTunes, Original Tiberiumsun69 Скачать
1 | 0
Фильмы [HD 720p, 1080p] (Хороший звук DUB, MVO) [ 5.79 GB ] Kingsman: Золотое кольцо / Kingsman: The Golden Circle | DUB + AVO + Ukr + Original + Sub | 720p от _denis_100 | NNNB _denis_100 Скачать
1 | 0

28-11-2019 20:33  


Отключить вcю реклaмy на сайте, в т.ч. и в плеере онлайн просмотра!

    Дорогой пользователь! Огромная просьба, поблагодарите релизера, оцените раздачу и оставьте свои комментарий, если Вы скачали Kingsman: Золотое кольцо через торрент бесплатно!!
    Комментировать посты могут только пользователи прошедшие не сложную регистрацию
    Показать сообщения:    


    Kingsman: Золотое кольцо через торрент
    Скачать бесплатно Kingsman: Золотое кольцо
    Kingsman: Золотое кольцо скачать торрент
    Kingsman: Золотое кольцо смотреть онлайн
    Cкачать фильм Kingsman: Золотое кольцо бесплатно
    Kingsman: Золотое кольцо скачать торрент в хорошем качестве
    Kingsman: Золотое кольцо смотреть онлайн бесплатно в хорошем качестве
    Вы не можете начинать темы
    Вы не можете отвечать на сообщения
    Вы не можете редактировать свои сообщения
    Вы не можете удалять свои сообщения
    Вы не можете голосовать в опросах
    Вы не можете прикреплять файлы к сообщениям
    Вы можете скачивать файлы
    Kingsman: Золотое кольцо / Kingsman: The Golden Circle [2017, боевик, комедия, приключения, UHD BDRemux 2160p] AVO [Ю.Сербин] +Дубляж [Лицензия] смотреть онлайн, скачать торрент picoco.icu