Достать ножи: Стеклянная луковица

MVO

Добыча

Дубляж

Уэнсдэй

1 сезон

Тор

Дубляж

13 клиническая

1 сезон

Жестокая ночь

MVO

Одни из нас

1 сезон

Deluxe

pack

Рекомендуем

30

Пиратка

ВАЖНО

ВАЖНО

Ghostwire

Пиратка

jed

RePack

nioh2

RePack

RDR2

RePack

NEED FOR SPEED™ PAYBACK

RePack

скачать торрент

Кинопоиск HD

Острые козырьки 6 сезон

6 сезон

FAR CRY 6

RePack

скачать торрент

Лицензия

скачать торрент

MVO

1

1 сезон

скачать торрент

1 сезон

скачать торрент

Лицензия

  

Идентификация Борна / The Bourne Identity (Даг Лайман) [2002, боевик, триллер, детектив, UHD BDRemux 2160p] Дубляж - [Лицензия]

Идентификация Борна через торрент 5050.piratbit.fun

Размер: 47.44 GB | Добавлен: 4 года 11 мес. назад | Торрент скачан:58 раз
Смотреть онлайн | Скачать | Поддержите нас   

13-02-2018 06:33 Идентификация Борна Скачать торрент  

Идентификация Борна / The Bourne Identity«He was the perfect weapon until he became the target» Год выпуска: 2002
Страна: США, Германия, Чехия
Жанр: боевик, триллер, детектив
Продолжительность: 01:58:27
Перевод: Дублированный
Субтитры: Русские, английские, английские форсированные, английские комментарии режиссёра
Режиссер: Даг Лайман
В ролях:

Мэтт Дэймон, Франка Потенте, Крис Купер, Клайв Оуэн, Брайан Кокс, Адевале Акинойе-Агбаже, Гэбриел Манн (Zorn), Джулия Стайлз, Тим Даттон (Eamon), Уолтон Гоггинс, Джош Хэмилтон, Орсо Мария Гуэррини
Описание:
Команда итальянского рыболовецкого судна находит в водах Средиземного моря тело мужчины. У него два пулевых ранения в спине и имплантированный в бедро микрофильм, помеченный номером швейцарского банка. Когда незнакомец приходит в себя, оказывается, что он не помнит кто он, и что с ним случилось, однако он может говорить на нескольких языках и обладает другими необычными способностями.
Рейтинг:

MPAA: PG-13 - Детям до 13 лет просмотр не желателен
Качество: UHD BDRemux 2160p
Формат: MKV
Видео: HEVC, 51893 Кбит/с, 3840x2160, 23.976 Кадр/с
Аудио 1: Русский DTS 5.1, 768 Kbps, 48.0 KHz (Полное дублирование) Blu-ray CEE
Аудио 2: Английский DTS-HD MA 7.1, 4458 Kbps, 48.0 KHz (Оригинал)
Аудио 3: Английский AC3 2.0, 192 Kbps, 48.0 KHz (Комментарии режиссёра)
Навигация по главам: есть
Общее
Уникальный идентификатор : 287146081189501878892169503824453109022 (0xD80652D89AE594EFEABB0936F2C9051E)
Полное имя : The Bourne Identity.mkv
Формат : Matroska
Версия формата : Version 4 / Version 2
Размер файла : 47,4 Гбайт
Продолжительность : 1 ч. 58 м.
Общий поток : 57,3 Мбит/сек
Название фильма : The Bourne Identity
Дата кодирования : UTC 2018-02-12 15:33:20
Программа кодирования : mkvmerge v20.0.0 ('I Am The Sun') 64-bit
Библиотека кодирования : libebml v1.3.5 + libmatroska v1.4.8

Видео
Идентификатор : 1
Формат : HEVC
Формат/Информация : High Efficiency Video Coding
Профиль формата : Main [email protected]@High
Идентификатор кодека : V_MPEGH/ISO/HEVC
Продолжительность : 1 ч. 58 м.
Битрейт : 51,9 Мбит/сек
Ширина : 3840 пикселей
Высота : 2160 пикселей
Соотношение сторон : 16:9
Режим частоты кадров : Постоянный
Частота кадров : 23,976 (24000/1001) кадра/сек
Цветовое пространство : YUV
Субдискретизация насыщенности : 4:2:0 (Type 2)
Битовая глубина : 10 бит
Бит/(Пиксели*Кадры) : 0.261
Размер потока : 42,9 Гбайт (90%)
Заголовок : MPEG-H HEVC Video / 51893 kbps / 2160p / 23.976 fps / 16:9 / Main 10 Profile 5.1 High / 4:2:0 / 10 bits / HDR / BT.2020
Язык : English
Default : Да
Forced : Нет
Цветовой диапазон : Limited
Основные цвета : BT.2020
Характеристики трансфера : PQ
Коэффициенты матрицы : BT.2020 non-constant
MasteringDisplay_ColorPrimaries : Display P3
MasteringDisplay_Luminance : min: 0.0000 cd/m2, max: 1000 cd/m2
MaxCLL : 1000 cd/m2
MaxFALL : 73 cd/m2

Аудио #1
Идентификатор : 2
Формат : DTS
Формат/Информация : Digital Theater Systems
Идентификатор кодека : A_DTS
Продолжительность : 1 ч. 58 м.
Вид битрейта : Постоянный
Битрейт : 768 Кбит/сек
Каналы : 6 каналов
Расположение каналов : Front: L C R, Side: L R, LFE
Частота : 48,0 КГц
Частота кадров : 93,750 кадра/сек (512 SPF)
Битовая глубина : 24 бит
Метод сжатия : С потерями
Размер потока : 652 Мбайт (1%)
Язык : Russian
Default : Да
Forced : Нет

Аудио #2
Идентификатор : 3
Формат : DTS
Формат/Информация : Digital Theater Systems
Профиль формата : X / MA / Core
Идентификатор кодека : A_DTS
Продолжительность : 1 ч. 58 м.
Вид битрейта : Переменный / Переменный / Постоянный
Битрейт : 4458 Кбит/сек / 4458 Кбит/сек / 1509 Кбит/сек
Каналы : Object Based / 8 каналов / 6 каналов
Расположение каналов : Object Based / Front: L C R, Side: L R, Back: L R, LFE / Front: L C R, Side: L R, LFE
Частота : / 48,0 КГц / 48,0 КГц
Частота кадров : 93,750 кадра/сек (512 SPF)
Битовая глубина : / 24 бит / 24 бит
Метод сжатия : / Lossless / Lossy
Размер потока : 3,69 Гбайт (8%)
Заголовок : DTS:X/DTS-HD Master Audio / 7.1-X / 48 kHz / 4458 kbps / 24-bit
Язык : English
Default : Нет
Forced : Нет

Аудио #3
Идентификатор : 4
Формат : AC-3
Формат/Информация : Audio Coding 3
Идентификатор кодека : A_AC3
Продолжительность : 1 ч. 58 м.
Вид битрейта : Постоянный
Битрейт : 192 Кбит/сек
Каналы : 2 канала
Расположение каналов : Front: L R
Частота : 48,0 КГц
Частота кадров : 31,250 кадров/сек (1536 SPF)
Битовая глубина : 16 бит
Метод сжатия : С потерями
Размер потока : 163 Мбайт (0%)
Заголовок : Commentary by director Doug Liman
Язык : English
ServiceKind/String : Complete Main
Default : Нет
Forced : Нет

Текст #1
Идентификатор : 5
Формат : PGS
Режим смешивания : zlib
Идентификатор кодека : S_HDMV/PGS
Идентификатор кодека/Информация : Picture based subtitle format used on BDs/HD-DVDs
Продолжительность : 1 ч. 57 м.
Битрейт : 1831 бит/сек
ElementCount : 160
Размер потока : 1,54 Мбайт (0%)
Язык : Russian
Default : Нет
Forced : Нет

Текст #2
Идентификатор : 6
Формат : PGS
Режим смешивания : zlib
Идентификатор кодека : S_HDMV/PGS
Идентификатор кодека/Информация : Picture based subtitle format used on BDs/HD-DVDs
Продолжительность : 1 ч. 51 м.
Битрейт : 29,0 Кбит/сек
ElementCount : 2194
Размер потока : 23,1 Мбайт (0%)
Заголовок : SDH
Язык : English
Default : Нет
Forced : Нет

Текст #3
Идентификатор : 7
Формат : PGS
Режим смешивания : zlib
Идентификатор кодека : S_HDMV/PGS
Идентификатор кодека/Информация : Picture based subtitle format used on BDs/HD-DVDs
Продолжительность : 1 ч. 14 м.
Битрейт : 2357 бит/сек
ElementCount : 128
Размер потока : 1,25 Мбайт (0%)
Заголовок : Forced only
Язык : English
Default : Да
Forced : Нет

Текст #4
Идентификатор : 8
Формат : PGS
Режим смешивания : zlib
Идентификатор кодека : S_HDMV/PGS
Идентификатор кодека/Информация : Picture based subtitle format used on BDs/HD-DVDs
Продолжительность : 1 ч. 57 м.
Битрейт : 60,2 Кбит/сек
ElementCount : 3293
Размер потока : 50,5 Мбайт (0%)
Заголовок : Commentary by director Doug Liman
Язык : English
Default : Нет
Forced : Нет

Меню
00:00:00.000 : en:"Dead" Man
00:06:28.179 : en:It's Not Coming Back
00:08:34.847 : en:To Switzerland
00:11:38.531 : en:The Wombosi Problem
00:13:38.359 : en:My Name is Jason Bourne
00:19:43.307 : en:The American Embassy
00:25:41.039 : en:Find Jason Bourne
00:29:15.462 : en:Marie Helena Kreutz
00:36:36.319 : en:Home
00:43:56.759 : en:Assassin
00:48:27.738 : en:The Right Thing
00:51:52.234 : en:Paris Pursuit
01:02:01.467 : en:Mr Kane's Hotel Bill
01:10:01.655 : en:The Wombosi Connection
01:18:44.928 : en:Eamon
01:24:20.055 : en:The Killer Outside
01:32:00.181 : en:Bourne's Game
01:38:59.308 : en:A Malfunctioning Weapon
01:45:33.327 : en:Forced Retirement
01:51:53.915 : en:End Titles



Скачать Идентификация Борна через торрент http://i100.fastpic.ru/big/2018/0213/4d/f7ac81c65c4f06b0bad82c6bf79d0d4d.png Скачать, смотреть онлайн Идентификация Борна бесплантно в хорошем качестве Описание: Команда итальянского рыболовецкого судна находит в водах Средиземного моря тело мужчины. У него два пулевых ранения в спине и ... 10 10 5
Info! Золотая раздача, скачанное не засчитывается.
Торрент: Зарегистрирован [2018-02-13 06:33] · скачан: 58 раз
Статус: √ проверено
Размер: 47.44 GB
Как cкачать? Как скачать Идентификация Борна через торрент | UTorrent

% Раздел Тема Автор DL S | L
Фильмы 2001-2005 [ 748 MB ] Идентификация Борна / The Bourne Identity | DUB | HDRip -=Cherry=- Скачать
1 | 0

28-11-2019 20:33  


Отключить вcю реклaмy на сайте, в т.ч. и в плеере онлайн просмотра!

    Дорогой пользователь! Огромная просьба, поблагодарите релизера, оцените раздачу и оставьте свои комментарий, если Вы скачали Идентификация Борна через торрент бесплатно!!
    Комментировать посты могут только пользователи прошедшие не сложную регистрацию
    Показать сообщения:    


    Идентификация Борна через торрент
    Скачать бесплатно Идентификация Борна
    Идентификация Борна скачать торрент
    Идентификация Борна смотреть онлайн
    Cкачать фильм Идентификация Борна бесплатно
    Идентификация Борна скачать торрент в хорошем качестве
    Идентификация Борна смотреть онлайн бесплатно в хорошем качестве
    Вы не можете начинать темы
    Вы не можете отвечать на сообщения
    Вы не можете редактировать свои сообщения
    Вы не можете удалять свои сообщения
    Вы не можете голосовать в опросах
    Вы не можете прикреплять файлы к сообщениям
    Вы можете скачивать файлы
    Идентификация Борна / The Bourne Identity [2002, боевик, триллер, детектив, UHD BDRemux 2160p] Дубляж - [Лицензия] смотреть онлайн, скачать торрент picoco.icu