Достать ножи: Стеклянная луковица

MVO

Добыча

Дубляж

Уэнсдэй

1 сезон

Тор

Дубляж

13 клиническая

1 сезон

Жестокая ночь

MVO

Одни из нас

1 сезон

Deluxe

pack

Рекомендуем

30

Пиратка

ВАЖНО

ВАЖНО

Ghostwire

Пиратка

jed

RePack

nioh2

RePack

RDR2

RePack

NEED FOR SPEED™ PAYBACK

RePack

скачать торрент

Кинопоиск HD

Острые козырьки 6 сезон

6 сезон

FAR CRY 6

RePack

скачать торрент

Лицензия

скачать торрент

MVO

1

1 сезон

скачать торрент

1 сезон

скачать торрент

Лицензия

  

Лабиринт / Labyrinth (Джим Хенсон) [1986, Мюзикл, фэнтези, приключения, семейный, UHD BDRemux 2160p] 3xMVO+3xAVO

Лабиринт через торрент 5050.piratbit.fun

Размер: 48.48 GB | Добавлен: 4 года 11 мес. назад | Торрент скачан:23 раза
Смотреть онлайн | Скачать | Поддержите нас   

14-02-2018 10:04 Лабиринт Скачать торрент  

Лабиринт / Labyrinth Год выпуска: 1986
Страна: США, Великобритания
Жанр: Мюзикл, фэнтези, приключения, семейный
Продолжительность: 01:41:03
Перевод: Профессиональный многоголосый, авторский
Субтитры: Русские (форсированные, полные), украинские, английские

Режиссер: Джим Хенсон

rating

В ролях:

Дэвид Боуи, Дженнифер Коннелли, Тоби Фрауд, Шелли Томпсон, Кристофер Малкольм, Натали Финленд, Шари Уайзер, Брайан Хенсон, Рон Мьюек, Роб Миллз, Дэйв Гольц, Дэвид Алан Барклай, Дэвид Шонесси, Карен Прелл, Тимоти Бейтсон

Описание:

За гранью сна и яви, в полной удивительных чудес волшебной стране жил да был король гоблинов Джарет. Однажды услыхал он, как девочка Сара в сердцах сказала несносному младшему брату Тоби: «Чтоб тебя гоблины унесли!» — и тут же поймал ее на слове, утащив малыша в свой замок! «Что же я наделала», — ахнула Сара и бросилась за Джаретом вдогонку, пока дверь в сказку не захлопнулась.Но чтобы попасть в замок похитителя и спасти брата, ей придется пройти зачарованный Лабиринт. Он полон всяких чудищ, хитрых ловушек и головоломок. А выход из него стережет целая армия гоблинов! Встречая на своем пути сонмы невиданных созданий и разгадывая странные загадки, Сара храбро углубляется в таинственный мир Лабиринта, шаг за шагом приближаясь к твердыне короля Джарета…

Качество: UHD BDRemux 2160p
Формат: MKV

Видео: MPEG-H HEVC HDR, 41.8 Mбит/с, 3840x2160, 23.976 кадр/с
Аудио#1: Русский (AC3, 6 ch, 640 Кбит/с) / Профессиональный многоголосый (Blu-ray EUR)
Аудио#2: Русский (DTS, 6 ch, 1510 Кбит/с) / Профессиональный многоголосый (R5)
Аудио#3: Русский (AC3, 6 ch, 640 Кбит/с) / Профессиональный многоголосый (Superbit)
Аудио#4: Русский (AC3, 6 ch, 640 Кбит/с) / Авторский (В. Горчаков)
Аудио#5: Русский (AC3, 6 ch, 448 Кбит/с) / Авторский (А.Гаврилов)
Аудио#6: Русский (AC3, 2 ch, 192 Кбит/с) / Авторский (М.Иванов)
Аудио#7: Английский (TrueHD+Atmos, 8 ch, 4669 Кбит/с)
Аудио#8: Английский (AC3, 6 ch, 640 Кбит/с)
скриншот  скриншот  скриншот  скриншот  

General
Unique ID : 136692323205566620911813792128038453832 (0x66D5FBDD219D0976B7F4BC674F19C248)
Complete name : D:uTorrentLabirint.1986.2160p.HEVC.UHD.HDR.MediaClub.mkv
Format : Matroska
Format version : Version 4 / Version 2
File size : 48.5 GiB
Duration : 1 h 41 min
Overall bit rate mode : Variable
Overall bit rate : 68.7 Mb/s
Encoded date : UTC 2018-02-11 21:16:42
Writing application : mkvmerge v19.0.0 ('Brave Captain') 64-bit
Writing library : libebml v1.3.5 + libmatroska v1.4.8
Cover : Yes
Attachments : cover.jpg

Video
ID : 1
Format : HEVC
Format/Info : High Efficiency Video Coding
Format profile : Main [email protected]@High
Codec ID : V_MPEGH/ISO/HEVC
Duration : 1 h 41 min
Bit rate : 59.2 Mb/s
Width : 3 840 pixels
Height : 2 160 pixels
Display aspect ratio : 16:9
Frame rate mode : Constant
Frame rate : 23.976 (24000/1001) FPS
Color space : YUV
Chroma subsampling : 4:2:0 (Type 2)
Bit depth : 10 bits
Bits/(Pixel*Frame) : 0.298
Stream size : 41.8 GiB (86%)
Title : BDRemux, 20160p, HEVC, UDH, HDR by Silverok
Default : Yes
Forced : No
Color range : Limited
Color primaries : BT.2020
Transfer characteristics : PQ
Matrix coefficients : BT.2020 non-constant
Mastering display color primaries : Display P3
Mastering display luminance : min: 0.0050 cd/m2, max: 4000 cd/m2
Maximum Content Light Level : 4390 cd/m2
Maximum Frame-Average Light Level : 1327 cd/m2

Audio #1
ID : 2
Format : AC-3
Format/Info : Audio Coding 3
Codec ID : A_AC3
Duration : 1 h 41 min
Bit rate mode : Constant
Bit rate : 640 kb/s
Channel(s) : 6 channels
Channel positions : Front: L C R, Side: L R, LFE
Sampling rate : 48.0 kHz
Frame rate : 31.250 FPS (1536 SPF)
Bit depth : 16 bits
Compression mode : Lossy
Stream size : 463 MiB (1%)
Title : многоголосый закадровый (Blu-ray EUR)
Language : Russian
Service kind : Complete Main
Default : Yes
Forced : No

Audio #2
ID : 3
Format : DTS
Format/Info : Digital Theater Systems
Codec ID : A_DTS
Duration : 1 h 41 min
Bit rate mode : Constant
Bit rate : 1 510 kb/s
Channel(s) : 6 channels
Channel positions : Front: L C R, Side: L R, LFE
Sampling rate : 48.0 kHz
Frame rate : 93.750 FPS (512 SPF)
Bit depth : 16 bits
Compression mode : Lossy
Stream size : 1.07 GiB (2%)
Title : многоголосый закадровый (R5)
Language : Russian
Default : No
Forced : No

Audio #3
ID : 4
Format : AC-3
Format/Info : Audio Coding 3
Codec ID : A_AC3
Duration : 1 h 41 min
Bit rate mode : Constant
Bit rate : 640 kb/s
Channel(s) : 6 channels
Channel positions : Front: L C R, Side: L R, LFE
Sampling rate : 48.0 kHz
Frame rate : 31.250 FPS (1536 SPF)
Bit depth : 16 bits
Compression mode : Lossy
Stream size : 463 MiB (1%)
Title : многоголосый закадровый (Superbit)
Language : Russian
Service kind : Complete Main
Default : No
Forced : No

Audio #4
ID : 5
Format : AC-3
Format/Info : Audio Coding 3
Codec ID : A_AC3
Duration : 1 h 41 min
Bit rate mode : Constant
Bit rate : 640 kb/s
Channel(s) : 6 channels
Channel positions : Front: L C R, Side: L R, LFE
Sampling rate : 48.0 kHz
Frame rate : 31.250 FPS (1536 SPF)
Bit depth : 16 bits
Compression mode : Lossy
Stream size : 463 MiB (1%)
Title : Авторский (В. Горчаков)
Language : Russian
Service kind : Complete Main
Default : No
Forced : No

Audio #5
ID : 6
Format : AC-3
Format/Info : Audio Coding 3
Codec ID : A_AC3
Duration : 1 h 41 min
Bit rate mode : Constant
Bit rate : 448 kb/s
Channel(s) : 6 channels
Channel positions : Front: L C R, Side: L R, LFE
Sampling rate : 48.0 kHz
Frame rate : 31.250 FPS (1536 SPF)
Bit depth : 16 bits
Compression mode : Lossy
Stream size : 324 MiB (1%)
Title : Авторский (А.Гаврилов)
Language : Russian
Service kind : Complete Main
Default : No
Forced : No

Audio #6
ID : 7
Format : AC-3
Format/Info : Audio Coding 3
Codec ID : A_AC3
Duration : 1 h 41 min
Bit rate mode : Constant
Bit rate : 192 kb/s
Channel(s) : 2 channels
Channel positions : Front: L R
Sampling rate : 48.0 kHz
Frame rate : 31.250 FPS (1536 SPF)
Bit depth : 16 bits
Compression mode : Lossy
Stream size : 139 MiB (0%)
Title : Авторский (М.Иванов)
Language : Russian
Service kind : Complete Main
Default : No
Forced : No

Audio #7
ID : 12
Format : TrueHD
Format profile : TrueHD+Atmos / TrueHD
Codec ID : A_TRUEHD
Duration : 1 h 41 min
Bit rate mode : Variable
Bit rate : 4 669 kb/s
Maximum bit rate : 7 335 kb/s
Channel(s) : Object Based / 8 channels
Channel positions : Object Based / Front: L C R, Side: L R, Back: L R, LFE
Sampling rate : / 48.0 kHz
Frame rate : 1 200.000 FPS (40 SPF)
Compression mode : Lossless
Stream size : 3.30 GiB (7%)
Language : English
Default : No
Forced : No

Audio #8
ID : 13
Format : AC-3
Format/Info : Audio Coding 3
Codec ID : A_AC3
Duration : 1 h 41 min
Bit rate mode : Constant
Bit rate : 640 kb/s
Channel(s) : 6 channels
Channel positions : Front: L C R, Side: L R, LFE
Sampling rate : 48.0 kHz
Frame rate : 31.250 FPS (1536 SPF)
Bit depth : 16 bits
Compression mode : Lossy
Stream size : 463 MiB (1%)
Language : English
Service kind : Complete Main
Default : No
Forced : No

Text #1
ID : 8
Format : UTF-8
Codec ID : S_TEXT/UTF8
Codec ID/Info : UTF-8 Plain Text
Duration : 1 h 35 min
Bit rate : 9 b/s
Count of elements : 132
Stream size : 6.69 KiB (0%)
Title : Forced
Language : Russian
Default : Yes
Forced : Yes

Text #2
ID : 9
Format : UTF-8
Codec ID : S_TEXT/UTF8
Codec ID/Info : UTF-8 Plain Text
Duration : 1 h 36 min
Bit rate : 70 b/s
Count of elements : 958
Stream size : 50.0 KiB (0%)
Title : Full
Language : Russian
Default : No
Forced : No

Text #3
ID : 10
Format : UTF-8
Codec ID : S_TEXT/UTF8
Codec ID/Info : UTF-8 Plain Text
Duration : 1 h 36 min
Bit rate : 75 b/s
Count of elements : 1139
Stream size : 53.1 KiB (0%)
Title : Full
Language : Ukrainian
Default : No
Forced : No

Text #4
ID : 11
Format : ASS
Codec ID : S_TEXT/ASS
Codec ID/Info : Advanced Sub Station Alpha
Duration : 1 h 33 min
Bit rate : 85 b/s
Count of elements : 1059
Compression mode : Lossless
Stream size : 59.0 KiB (0%)
Title : Full
Language : English
Default : No
Forced : No

Menu
00:00:00.000 : en:Start
00:04:09.207 : en:Babysit
00:11:44.537 : en:The Goblin King
00:16:57.975 : en:Left or Right?
00:22:20.756 : en:"Magic Dance"
00:28:53.523 : en:The Oubliette
00:33:11.656 : en:Crystal Ball
00:38:52.997 : en:Wiseman & Hat
00:45:05.661 : en:Door Knockers
00:50:48.378 : en:"Chilly Down"
00:57:20.019 : en:Sir Didymus
01:03:25.468 : en:"As The World Turns"
01:09:57.860 : en:The Junk Lady
01:15:50.128 : en:Castle Guards
01:24:05.999 : en:The Rolling Stones
01:30:47.567 : en:Powerless




Скачать Лабиринт через торрент http://img12.lostpic.net/2018/02/14/caa25cf51556f6c152e743f858b67bf7.jpg Скачать, смотреть онлайн Лабиринт бесплантно в хорошем качестве Описание: За гранью сна и яви, в полной удивительных чудес волшебной стране жил да был король гоблинов Джарет. Однажды услыхал он, как ... 10 10 2
Info! Золотая раздача, скачанное не засчитывается.
Торрент: Зарегистрирован [2018-02-14 10:04] · скачан: 23 раз
Статус: √ проверено
Размер: 48.48 GB
Как cкачать? Как скачать Лабиринт через торрент | UTorrent

28-11-2019 20:33  


Отключить вcю реклaмy на сайте, в т.ч. и в плеере онлайн просмотра!

    Дорогой пользователь! Огромная просьба, поблагодарите релизера, оцените раздачу и оставьте свои комментарий, если Вы скачали Лабиринт через торрент бесплатно!!
    Комментировать посты могут только пользователи прошедшие не сложную регистрацию
    Показать сообщения:    


    Лабиринт через торрент
    Скачать бесплатно Лабиринт
    Лабиринт скачать торрент
    Лабиринт смотреть онлайн
    Cкачать фильм Лабиринт бесплатно
    Лабиринт скачать торрент в хорошем качестве
    Лабиринт смотреть онлайн бесплатно в хорошем качестве
    Вы не можете начинать темы
    Вы не можете отвечать на сообщения
    Вы не можете редактировать свои сообщения
    Вы не можете удалять свои сообщения
    Вы не можете голосовать в опросах
    Вы не можете прикреплять файлы к сообщениям
    Вы можете скачивать файлы
    Лабиринт / Labyrinth [1986, Мюзикл, фэнтези, приключения, семейный, UHD BDRemux 2160p] 3xMVO+3xAVO смотреть онлайн, скачать торрент picoco.icu