Достать ножи: Стеклянная луковица

MVO

Добыча

Дубляж

Уэнсдэй

1 сезон

Тор

Дубляж

13 клиническая

1 сезон

Жестокая ночь

MVO

Одни из нас

1 сезон

Deluxe

pack

Рекомендуем

30

Пиратка

ВАЖНО

ВАЖНО

Ghostwire

Пиратка

jed

RePack

nioh2

RePack

RDR2

RePack

NEED FOR SPEED™ PAYBACK

RePack

скачать торрент

Кинопоиск HD

Острые козырьки 6 сезон

6 сезон

FAR CRY 6

RePack

скачать торрент

Лицензия

скачать торрент

MVO

1

1 сезон

скачать торрент

1 сезон

скачать торрент

Лицензия

  

Любой ценой / Hell or High Water (Дэвид Маккензи) [2016, Драма, криминал, UHD BDRemux 2160p] 3xAVO+Дубляж [Лицензия]

Любой ценой через торрент 5050.piratbit.fun

Раздают: 1 [ 0 KB/s ]
Размер: 64.61 GB | Добавлен: 4 года 11 мес. назад | Торрент скачан:38 раз
Смотреть онлайн | Скачать | Поддержите нас   

16-02-2018 05:35 Любой ценой Скачать торрент  

Любой ценой / Hell or High WaterГод выпуска: 2016
Страна: США
Жанр: Драма, криминал
Продолжительность: 01:42:15

Перевод:

#1: Дублированный | Лицензия
#2: Авторский | А. Матвеев
#3: Авторский | Назаров
#4: Авторский | Немахов

Субтитры: Русские (forced, full), английские

Режиссер: Дэвид Маккензи

rating

В ролях:

Джефф Бриджес, Крис Пайн, Бен Фостер, Джил Бирмингем, Дейл Дикки, Уильям Стерчи, Бак Тейлор, Кристин Берг, Кит Мэривезер, Жакмо Буззел

Описание:

Им нужно совсем немного. Каких-то пару тысяч долларов, чтоб выкупить закладную и переписать дом на детей. А значит, окрестным банкам не уйти от дерзких налетов двух отчаянных братьев. Старший - рассудителен, младший - горяч, но так или иначе, а на этом пути им придется столкнуться с рейнджером Гамильтоном! И хотя до пенсии ему пару недель, но если закон был нарушен, значит, нарушителям уже несдобровать. К тому же, в напарниках у Гамильтона - офицер-краснокожий...


Качество: UHD BDRemux 2160p
Формат: MKV

Видео: MPEG-H HEVC HDR Video, 3840x2160, 74.2 Mbit/s, 23.976 fps
Аудио#1: 48 kHz, DTS-HD MA, 5.1, 3933 Kbps | Дублированный | RUS |
Аудио#2: 48 kHz, DTS-HD MA, 5.1, 3611 Kbps | Авторский | RUS |
Аудио#3: 48 kHz, DTS-HD MA, 5.1, 3581 Kbps | Авторский | RUS |
Аудио#4: 48 kHz, DTS, 5.1, 1510 Kbps | Авторский | RUS |
Аудио#5: 48 kHz, DTS-HD MA, 5.1, 3560 Kbps | Оригинал | ENG |
скриншот  


Релиз от:
скриншот  скриншот  скриншот  скриншот  скриншот  скриншот  

General
Unique ID : 301823134385138015144599741561072383433 (0xE31105701F8D40D87A5038B11661F5C9)
Complete name : E:VideoHell.or.High.Water.2016.BDREMUX.2160p.4K.UltraHD.HEVC.HDR.ExKinoRay.mkv
Format : Matroska
Format version : Version 4 / Version 2
File size : 64.6 GiB
Duration : 1 h 42 min
Overall bit rate : 90.4 Mb/s
Movie name : Hell or High Water 2016 from ExKinoRay
Encoded date : UTC 2018-02-15 17:37:21
Writing application : mkvmerge v20.0.0 ('I Am The Sun') 64-bit
Writing library : libebml v1.3.5 + libmatroska v1.4.8

Video
ID : 1
Format : HEVC
Format/Info : High Efficiency Video Coding
Format profile : Main [email protected]@High
Codec ID : V_MPEGH/ISO/HEVC
Duration : 1 h 42 min
Bit rate : 74.2 Mb/s
Width : 3 840 pixels
Height : 2 160 pixels
Display aspect ratio : 16:9
Frame rate mode : Constant
Frame rate : 23.976 (24000/1001) FPS
Color space : YUV
Chroma subsampling : 4:2:0 (Type 2)
Bit depth : 10 bits
Bits/(Pixel*Frame) : 0.373
Stream size : 53.0 GiB (82%)
Language : English
Default : Yes
Forced : No
Color range : Limited
Color primaries : BT.2020
Transfer characteristics : PQ
Matrix coefficients : BT.2020 non-constant
Mastering display color pri : Display P3
Mastering display luminance : min: 0.0050 cd/m2, max: 1000 cd/m2
Maximum Content Light Level : 1000 cd/m2
Maximum Frame-Average Light : 559 cd/m2

Audio #1
ID : 2
Format : DTS
Format/Info : Digital Theater Systems
Format profile : MA / Core
Codec ID : A_DTS
Duration : 1 h 42 min
Bit rate mode : Variable / Constant
Bit rate : 3 933 kb/s / 1 509 kb/s
Channel(s) : 6 channels
Channel positions : Front: L C R, Side: L R, LFE
Sampling rate : 48.0 kHz
Frame rate : 93.750 FPS (512 SPF)
Bit depth : 24 bits
Compression mode : Lossless / Lossy
Stream size : 2.81 GiB (4%)
Title : Дубляж [License]
Language : Russian
Default : Yes
Forced : No

Audio #2
ID : 3
Format : DTS
Format/Info : Digital Theater Systems
Format profile : MA / Core
Codec ID : A_DTS
Duration : 1 h 42 min
Bit rate mode : Variable / Constant
Bit rate : 3 611 kb/s / 1 509 kb/s
Channel(s) : 6 channels
Channel positions : Front: L C R, Side: L R, LFE
Sampling rate : 48.0 kHz
Frame rate : 93.750 FPS (512 SPF)
Bit depth : 24 bits
Compression mode : Lossless / Lossy
Stream size : 2.58 GiB (4%)
Title : AVO [Matveev]
Language : Russian
Default : No
Forced : No

Audio #3
ID : 4
Format : DTS
Format/Info : Digital Theater Systems
Format profile : MA / Core
Codec ID : A_DTS
Duration : 1 h 42 min
Bit rate mode : Variable / Constant
Bit rate : 3 581 kb/s / 1 509 kb/s
Channel(s) : 6 channels
Channel positions : Front: L C R, Side: L R, LFE
Sampling rate : 48.0 kHz
Frame rate : 93.750 FPS (512 SPF)
Bit depth : 24 bits
Compression mode : Lossless / Lossy
Stream size : 2.56 GiB (4%)
Title : AVO [Nazarov]
Language : Russian
Default : No
Forced : No

Audio #4
ID : 5
Format : DTS
Format/Info : Digital Theater Systems
Codec ID : A_DTS
Duration : 1 h 42 min
Bit rate mode : Constant
Bit rate : 1 509 kb/s
Channel(s) : 6 channels
Channel positions : Front: L C R, Side: L R, LFE
Sampling rate : 48.0 kHz
Frame rate : 93.750 FPS (512 SPF)
Bit depth : 24 bits
Compression mode : Lossy
Stream size : 1.08 GiB (2%)
Title : AVO [Nemahov]
Language : Russian
Default : No
Forced : No

Audio #5
ID : 6
Format : DTS
Format/Info : Digital Theater Systems
Format profile : MA / Core
Codec ID : A_DTS
Duration : 1 h 42 min
Bit rate mode : Variable / Constant
Bit rate : 3 560 kb/s / 1 509 kb/s
Channel(s) : 6 channels
Channel positions : Front: L C R, Side: L R, LFE
Sampling rate : 48.0 kHz
Frame rate : 93.750 FPS (512 SPF)
Bit depth : 24 bits
Compression mode : Lossless / Lossy
Stream size : 2.54 GiB (4%)
Title : Original
Language : English
Default : No
Forced : No

Text #1
ID : 7
Format : UTF-8
Codec ID : S_TEXT/UTF8
Codec ID/Info : UTF-8 Plain Text
Duration : 43 min 22 s
Bit rate : 2 b/s
Count of elements : 14
Stream size : 938 Bytes (0%)
Title : Forced [Matveev]
Language : Russian
Default : Yes
Forced : No

Text #2
ID : 8
Format : UTF-8
Codec ID : S_TEXT/UTF8
Codec ID/Info : UTF-8 Plain Text
Duration : 1 h 38 min
Bit rate : 84 b/s
Count of elements : 805
Stream size : 61.4 KiB (0%)
Title : Full [Matveev]
Language : Russian
Default : No
Forced : No

Text #3
ID : 9
Format : UTF-8
Codec ID : S_TEXT/UTF8
Codec ID/Info : UTF-8 Plain Text
Duration : 1 h 34 min
Bit rate : 52 b/s
Count of elements : 1167
Stream size : 36.7 KiB (0%)
Title : Full
Language : English
Default : No
Forced : No

Menu
00:00:00.000 : en:Chapter 1
00:09:37.243 : en:Chapter 2
00:13:50.455 : en:Chapter 3
00:22:14.583 : en:Chapter 4
00:28:40.385 : en:Chapter 5
00:31:54.329 : en:Chapter 6
00:40:49.614 : en:Chapter 7
00:46:49.932 : en:Chapter 8
00:55:45.092 : en:Chapter 9
01:02:06.473 : en:Chapter 10
01:09:52.897 : en:Chapter 11
01:14:04.649 : en:Chapter 12
01:20:56.226 : en:Chapter 13
01:29:09.135 : en:Chapter 14
01:35:03.865 : en:Chapter 15
01:38:28.277 : en:Chapter 16




Скачать Любой ценой через торрент http://img12.lostpic.net/2018/02/16/80d48e9c2bb280071e88ae623e1fd84d.jpg Скачать, смотреть онлайн Любой ценой бесплантно в хорошем качестве Описание: Им нужно совсем немного. Каких-то пару тысяч долларов, чтоб выкупить закладную и переписать дом на детей. А значит, окрестным ... 10 10 4
Торрент: Зарегистрирован [2018-02-16 05:35] · скачан: 38 раз
Статус: √ проверено
Размер: 64.61 GB
Как cкачать? Как скачать Любой ценой через торрент | UTorrent

% Раздел Тема Автор DL S | L
Фильмы с авторской озвучкой [ 1.46 GB ] Любой ценой / Hell or High Water | AVO | BDRip Twi7ter Скачать
1 | 0
Фильмы с авторской озвучкой [ 1.46 GB ] Любой ценой / Hell or High Water | AVO | BDRip killermax2013 Скачать
1 | 0
Фильмы [HD 720p, 1080p] (Хороший звук DUB, MVO) [ 7.09 GB ] Любой ценой / Hell or High Water | DUB + 3xAVO + Original + Sub | 720p от _denis_100 | NNNB _denis_100 Скачать
1 | 0
Фильмы (Blu-ray, BD-Remux, HDDVD) [ 29.24 GB ] Любой ценой / Hell or High Water | Лицензия | BD Remux 1080p bober100 Скачать
1 | 0
Фильмы [HD 720p, 1080p] (Хороший звук DUB, MVO) [ 5.76 GB ] Любой ценой / Hell or High Water | DUB | 720p от potroks potroks Скачать
2 | 0
Фильмы 2016 [DVDrip, WEB-DLRip, HDrip] (DUB, MVO) [ 1.46 GB ] Любой ценой / Hell or High Water | Лицензия | BDRip Twi7ter Скачать
1 | 0
R.G. Resident & PiratVoice - Фильмы, Видео [ 1.46 GB ] Любой ценой / Hell or High Water | iTunes | BDRip-AVC White Smoke Скачать
1 | 0

28-11-2019 20:33  


Отключить вcю реклaмy на сайте, в т.ч. и в плеере онлайн просмотра!

    Дорогой пользователь! Огромная просьба, поблагодарите релизера, оцените раздачу и оставьте свои комментарий, если Вы скачали Любой ценой через торрент бесплатно!!
    Комментировать посты могут только пользователи прошедшие не сложную регистрацию
    Показать сообщения:    


    Любой ценой через торрент
    Скачать бесплатно Любой ценой
    Любой ценой скачать торрент
    Любой ценой смотреть онлайн
    Cкачать фильм Любой ценой бесплатно
    Любой ценой скачать торрент в хорошем качестве
    Любой ценой смотреть онлайн бесплатно в хорошем качестве
    Вы не можете начинать темы
    Вы не можете отвечать на сообщения
    Вы не можете редактировать свои сообщения
    Вы не можете удалять свои сообщения
    Вы не можете голосовать в опросах
    Вы не можете прикреплять файлы к сообщениям
    Вы можете скачивать файлы
    Любой ценой / Hell or High Water [2016, Драма, криминал, UHD BDRemux 2160p] 3xAVO+Дубляж [Лицензия] смотреть онлайн, скачать торрент picoco.icu