Достать ножи: Стеклянная луковица

MVO

Добыча

Дубляж

Уэнсдэй

1 сезон

Тор

Дубляж

13 клиническая

1 сезон

Жестокая ночь

MVO

Одни из нас

1 сезон

Deluxe

pack

Рекомендуем

30

Пиратка

ВАЖНО

ВАЖНО

Ghostwire

Пиратка

jed

RePack

nioh2

RePack

RDR2

RePack

NEED FOR SPEED™ PAYBACK

RePack

скачать торрент

Кинопоиск HD

Острые козырьки 6 сезон

6 сезон

FAR CRY 6

RePack

скачать торрент

Лицензия

скачать торрент

MVO

1

1 сезон

скачать торрент

1 сезон

скачать торрент

Лицензия

  

Здравствуй, папа, Новый год! / Daddy's Home (Шон Андерс) [2015, комедия, UHD BDRemux 2160p] Дубляж (rus, ukr)

Здравствуй, папа, Новый год! через торрент 5050.piratbit.fun

Размер: 47.83 GB | Добавлен: 4 года 11 мес. назад | Торрент скачан:39 раз
Смотреть онлайн | Скачать | Поддержите нас   

18-02-2018 03:58 Здравствуй, папа, Новый год! Скачать торрент  

Здравствуй, папа, Новый год! / Daddy's Home

Год выпуска: 2015
Страна: США
Жанр: комедия
Продолжительность: 01:36:01
Перевод: Дублированный
Субтитры: Русские (форсированные, полные), Английские (форсированные, полные, SDH)
Режиссер: Шон Андерс
В ролях:

Уилл Феррелл (Brad Whitaker), Марк Уолберг (Dusty Mayron), Линда Карделлини (Sara), Томас Хейден Чёрч (Leo Holt), Скарлет Эстевез (Megan), Оуэн Ваккаро (Dylan), Бобби Каннавале (Dr. Francisco), Хэннибал Бёресс (Griff), Билл Бёрр (Jerry (Bully's Dad)), Джейми Денбо (Doris), Марк Л. Янг (Dental Hygienist), Мэттью Мартинес (Pete (Recording Engineer))
Описание:
Отец двоих детей возвращается к своей бывшей жене, которая успела выйти замуж, и теперь его ждет соперничество с отчимом за внимание своих отпрысков.
Рейтинг:

MPAA: PG-13 - Детям до 13 лет просмотр не желателен
Качество: UHD BDRemux 2160p
Формат: MKV
Видео: HEVC, 64900 Кбит/с, 3840x2160, 23.976 кадр/с
Аудио #1: Русский (Дублированный), AC3, 6ch (L, C, R, Ls, Rs +LFE), 640 кбит/с |Лицензия, Blu-ray CEE |
Аудио #2: Украинский (Дублированный), AC3, 2ch (L,R), 192 кбит/с |n/a, Гуртом|
Аудио #3: Английский (Оригинал), AC3, 6ch (L, C, R, Ls, Rs +LFE), 640 кбит/с
Аудио #4: Английский (Оригинал), DTS-HD MA, 8ch (L, C, R, Ls, Rs +LFE), 4909 кбит/с
Навигация по главам: Есть
Общее
Уникальный идентификатор : 248361313039703314648749669475219746155 (0xBAD8A6239F400C2EB91F9DB3EDCD2D6B)
Полное имя : H:\Daddys.Home.2015.2160p.BluRay.REMUX.HEVC.HDR.DTS-Master5.mkv
Формат : Matroska
Версия формата : Version 4 / Version 2
Размер файла : 47,8 Гбайт
Продолжительность : 1 ч. 36 м.
Общий поток : 71,3 Мбит/сек
Название фильма : Daddys.Home.2015.2160p.BluRay.REMUX.HEVC.HDR.DTS-Master5
Дата кодирования : UTC 2018-02-17 19:08:23
Программа кодирования : mkvmerge v8.1.0 ('Psychedelic Postcard') 32bit
Библиотека кодирования : libebml v1.3.1 + libmatroska v1.4.2

Видео
Идентификатор : 1
Формат : HEVC
Формат/Информация : High Efficiency Video Coding
Профиль формата : Main [email protected]@High
Идентификатор кодека : V_MPEGH/ISO/HEVC
Продолжительность : 1 ч. 36 м.
Битрейт : 64,9 Мбит/сек
Ширина : 3840 пикселей
Высота : 2160 пикселей
Соотношение сторон : 16:9
Режим частоты кадров : Постоянный
Частота кадров : 23,976 (24000/1001) кадра/сек
Цветовое пространство : YUV
Субдискретизация насыщенности : 4:2:0 (Type 2)
Битовая глубина : 10 бит
Бит/(Пиксели*Кадры) : 0.326
Размер потока : 43,5 Гбайт (91%)
Заголовок : Daddys.Home.2015.2160p.BluRay.REMUX.HEVC.HDR.DTS-Master5
Default : Да
Forced : Нет
Цветовой диапазон : Limited
Основные цвета : BT.2020
Характеристики трансфера : SMPTE ST 2084
Коэффициенты матрицы : BT.2020 non-constant
MasteringDisplay_ColorPrimaries : R: x=0.680000 y=0.320000, G: x=0.265000 y=0.690000, B: x=0.150000 y=0.060000, White point: x=0.312700 y=0.329000
MasteringDisplay_Luminance : min: 0.0001 cd/m2, max: 1000.0000 cd/m2

Аудио #1
Идентификатор : 2
Формат : AC-3
Формат/Информация : Audio Coding 3
Расширение режима : CM (complete main)
Параметр Endianness формата : Big
Идентификатор кодека : A_AC3
Продолжительность : 1 ч. 36 м.
Вид битрейта : Постоянный
Битрейт : 640 Кбит/сек
Каналы : 6 каналов
Расположение каналов : Front: L C R, Side: L R, LFE
Частота : 48,0 КГц
Частота кадров : 31,250 кадров/сек (1536 spf)
Метод сжатия : С потерями
Размер потока : 440 Мбайт (1%)
Заголовок : Лицензия, Blu-ray CEE
Язык : Russian
Default : Нет
Forced : Нет

Аудио #2
Идентификатор : 3
Формат : AC-3
Формат/Информация : Audio Coding 3
Расширение режима : CM (complete main)
Параметр Endianness формата : Big
Идентификатор кодека : A_AC3
Продолжительность : 1 ч. 36 м.
Вид битрейта : Постоянный
Битрейт : 192 Кбит/сек
Каналы : 2 канала
Расположение каналов : Front: L R
Частота : 48,0 КГц
Частота кадров : 31,250 кадров/сек (1536 spf)
Метод сжатия : С потерями
Размер потока : 132 Мбайт (0%)
Язык : Ukrainian
Default : Нет
Forced : Нет

Аудио #3
Идентификатор : 4
Формат : DTS
Формат/Информация : Digital Theater Systems
Профиль формата : X / MA / Core
Режим : 16
Параметр Endianness формата : Big
Идентификатор кодека : A_DTS
Продолжительность : 1 ч. 36 м.
Вид битрейта : Переменный / Переменный / Постоянный
Битрейт : 4909 Кбит/сек / 4909 Кбит/сек / 1509 Кбит/сек
Каналы : Object Based / 8 каналов / 6 каналов
Расположение каналов : Object Based / Front: L C R, Side: L R, Back: L R, LFE / Front: L C R, Side: L R, LFE
Частота : / 48,0 КГц / 48,0 КГц
Частота кадров : 93,750 кадра/сек (512 spf)
Битовая глубина : / 24 бит / 24 бит
Метод сжатия : / Lossless / Lossy
Размер потока : 3,29 Гбайт (7%)
Язык : English
Default : Нет
Forced : Нет

Аудио #4
Идентификатор : 5
Формат : AC-3
Формат/Информация : Audio Coding 3
Расширение режима : CM (complete main)
Параметр Endianness формата : Big
Идентификатор кодека : A_AC3
Продолжительность : 1 ч. 36 м.
Вид битрейта : Постоянный
Битрейт : 640 Кбит/сек
Каналы : 6 каналов
Расположение каналов : Front: L C R, Side: L R, LFE
Частота : 48,0 КГц
Частота кадров : 31,250 кадров/сек (1536 spf)
Метод сжатия : С потерями
Размер потока : 440 Мбайт (1%)
Язык : English
Default : Нет
Forced : Нет

Текст #1
Идентификатор : 6
Формат : UTF-8
Идентификатор кодека : S_TEXT/UTF8
Идентификатор кодека/Информация : UTF-8 Plain Text
Продолжительность : 1 ч. 17 м.
Битрейт : 0 бит/сек
Count of elements : 11
Размер потока : 553 байт (0%)
Заголовок : Forced
Язык : Russian
Default : Да
Forced : Нет

Текст #2
Идентификатор : 7
Формат : UTF-8
Идентификатор кодека : S_TEXT/UTF8
Идентификатор кодека/Информация : UTF-8 Plain Text
Продолжительность : 1 ч. 30 м.
Битрейт : 150 бит/сек
Count of elements : 1647
Размер потока : 99,9 Кбайт (0%)
Язык : Russian
Default : Нет
Forced : Нет

Текст #3
Идентификатор : 8
Формат : UTF-8
Идентификатор кодека : S_TEXT/UTF8
Идентификатор кодека/Информация : UTF-8 Plain Text
Продолжительность : 3 с. 294 мс.
Битрейт : 136 бит/сек
Count of elements : 1
Размер потока : 56,0 байт (0%)
Заголовок : Forced
Язык : English
Default : Нет
Forced : Нет

Текст #4
Идентификатор : 9
Формат : UTF-8
Идентификатор кодека : S_TEXT/UTF8
Идентификатор кодека/Информация : UTF-8 Plain Text
Продолжительность : 1 ч. 33 м.
Битрейт : 106 бит/сек
Count of elements : 2050
Размер потока : 73,4 Кбайт (0%)
Язык : English
Default : Нет
Forced : Нет

Текст #5
Идентификатор : 10
Формат : UTF-8
Идентификатор кодека : S_TEXT/UTF8
Идентификатор кодека/Информация : UTF-8 Plain Text
Продолжительность : 1 ч. 33 м.
Битрейт : 111 бит/сек
Count of elements : 2160
Размер потока : 77,0 Кбайт (0%)
Заголовок : SDH
Язык : English
Default : Нет
Forced : Нет

Меню
00:00:00.000 : en:Chapter 1
00:09:23.729 : en:Chapter 2
00:19:57.070 : en:Chapter 3
00:28:45.014 : en:Chapter 4
00:35:35.049 : en:Chapter 5
00:44:05.768 : en:Chapter 6
00:55:54.726 : en:Chapter 7
01:03:21.047 : en:Chapter 8
01:12:08.198 : en:Chapter 9
01:21:58.204 : en:Chapter 10
01:31:15.261 : en:Chapter 11



Скачать Здравствуй, папа, Новый год! через торрент http://i101.fastpic.ru/big/2018/0218/e6/db88651f7944341e68e45a8df5ca4ee6.png Скачать, смотреть онлайн Здравствуй, папа, Новый год! бесплантно в хорошем качестве Описание: Отец двоих детей возвращается к своей бывшей жене, которая успела выйти замуж, и теперь его ждет соперничество с отчимом за ... 10 10 1
Info! Золотая раздача, скачанное не засчитывается.
Торрент: Зарегистрирован [2018-02-18 03:58] · скачан: 39 раз
Статус: √ проверено
Размер: 47.83 GB
Как cкачать? Как скачать Здравствуй, папа, Новый год! через торрент | UTorrent

% Раздел Тема Автор DL S | L
Фильмы 2015 [DVDrip, WEB-DLRip, HDrip] [ 1.46 GB ] Здравствуй, папа, Новый год / Daddy's Home | Лицензия | BDRip Twi7ter Скачать
2 | 0
Фильмы 2017 [DVDrip, WEB-DLRip, HDrip] (DUB, MVO) [ 1.46 GB ] Здравствуй, папа, Новый год! 2 / Daddy's Home 2 | Лицензия | BDRip Twi7ter Скачать
1 | 0
Фильмы 2017 [DVDrip, WEB-DLRip, HDrip] (DUB, MVO) [ 1.46 GB ] Здравствуй, папа, Новый год! 2 / Daddy's Home 2 | Лицензия BD EUR | BDRip bober100 Скачать
1 | 0
Ultra HD (UHD: 2K, 4K, 8K) [ 55.33 GB ] Здравствуй, папа, Новый год! 2 / Daddy's Home 2 | Лицензия EUR | 2160p sheker187 Скачать
1 | 0
Ultra HD (UHD: 2K, 4K, 8K) [ 42.18 GB ] Здравствуй, папа, Новый год! 2 / Daddy's Home 2 | Лицензия | 2160p bober100 Скачать
1 | 0
Фильмы 2017 [DVDrip, WEB-DLRip, HDrip] (DUB, MVO) [ 2.44 GB ] Здравствуй, папа, Новый год! 2 / Daddy's Home 2 | Лицензия | BDRip-AVC bober100 Скачать
3 | 1
Фильмы (Blu-ray, BD-Remux, HDDVD) [ 23.52 GB ] Здравствуй, папа, Новый год! 2 / Daddy's Home 2 | Лицензия | BD Remux 1080p bober100 Скачать
1 | 0

28-11-2019 20:33  


Отключить вcю реклaмy на сайте, в т.ч. и в плеере онлайн просмотра!

    Дорогой пользователь! Огромная просьба, поблагодарите релизера, оцените раздачу и оставьте свои комментарий, если Вы скачали Здравствуй, папа, Новый год! через торрент бесплатно!!
    Комментировать посты могут только пользователи прошедшие не сложную регистрацию
    Показать сообщения:    


    Здравствуй, папа, Новый год! через торрент
    Скачать бесплатно Здравствуй, папа, Новый год!
    Здравствуй, папа, Новый год! скачать торрент
    Здравствуй, папа, Новый год! смотреть онлайн
    Cкачать фильм Здравствуй, папа, Новый год! бесплатно
    Здравствуй, папа, Новый год! скачать торрент в хорошем качестве
    Здравствуй, папа, Новый год! смотреть онлайн бесплатно в хорошем качестве
    Вы не можете начинать темы
    Вы не можете отвечать на сообщения
    Вы не можете редактировать свои сообщения
    Вы не можете удалять свои сообщения
    Вы не можете голосовать в опросах
    Вы не можете прикреплять файлы к сообщениям
    Вы можете скачивать файлы
    Здравствуй, папа, Новый год! / Daddy's Home [2015, комедия, UHD BDRemux 2160p] Дубляж смотреть онлайн, скачать торрент picoco.icu