Достать ножи: Стеклянная луковица

MVO

Добыча

Дубляж

Уэнсдэй

1 сезон

Тор

Дубляж

13 клиническая

1 сезон

Жестокая ночь

MVO

Одни из нас

1 сезон

Deluxe

pack

Рекомендуем

30

Пиратка

ВАЖНО

ВАЖНО

Ghostwire

Пиратка

jed

RePack

nioh2

RePack

RDR2

RePack

NEED FOR SPEED™ PAYBACK

RePack

скачать торрент

Кинопоиск HD

Острые козырьки 6 сезон

6 сезон

FAR CRY 6

RePack

скачать торрент

Лицензия

скачать торрент

MVO

1

1 сезон

скачать торрент

1 сезон

скачать торрент

Лицензия

  

Геракл: Начало легенды / The Legend of Hercules (Ренни Харлин) [2014, боевик, фэнтези, UHD BDRemux 2160p] Дубляж - [Лицензия]

Геракл: Начало легенды через торрент 5050.piratbit.fun

Размер: 56.12 GB | Добавлен: 4 года 11 мес. назад | Торрент скачан:61 раз
Смотреть онлайн | Скачать | Поддержите нас   

20-02-2018 14:21 Геракл: Начало легенды Скачать торрент  

Геракл: Начало легенды / The Legend of Hercules
Год выпуска: 2014
Страна: США, Болгария
Жанр: боевик, фэнтези
Продолжительность: 01:38:40
Перевод: Дублированный
Субтитры: Русские, английские
Режиссер: Ренни Харлин
В ролях:

Келлан Латс (Hercules), Скотт Эдкинс (King Amphitryon), Лиам МакИнтайр (Sotiris), Гайя Уайсс (Hebe), Лиам Гэрриган (Iphicles), Роксанна МакКи (Queen Alcmene), Раде Шербеджия (Chiron), Джонатон Шек (Tarak), Люк Ньюберри (Agamemnon), Кеннет Крэнэм (Lucius), Мэрайя Гэйл (Kakia), Сарай Гивати (Saphirra)
Описание:
1200 г. до н. э. Древняя Греция. Прекрасная царица Алкмена попала под чары грозного бога Олимпа - Зевса и родила ему сына Геракла. При рождении ему было предсказано стать величайшим воином, который будет властвовать над народами и принесет мир и процветание своей стране. Но пока Геракл ничего не знает о своем предназначении. Он вырос прекрасным и сильным юношей. Он мечтает о любви принцессы Крита, Гебы, которая обещана в жены его брату. Когда Геракл узнает о своей великой миссии, он должен выбрать: сбежать со своей любовью или исполнить свое предназначение.
Рейтинг:

MPAA: PG-13 - Детям до 13 лет просмотр не желателен
Качество: UHD BDRemux 2160p
Формат: MKV
Видео : HEVC, 71879 Кбит/с, 3840x2160, 23.976 кадр/с
Аудио 1: DTS-HD MA, 6 ch, 4152 Кбит/с - Русский
Аудио 2: АС3, 6 ch, 448 Кбит/с - Украинский
Аудио 3: DTS-HD MA, 8 ch, 4527 Кбит/с - Английский
Аудио 4: АС3, 2 ch, 192 Кбит/с - Английский
Аудио 5: АС3, 2 ch, 224 Кбит/с - Английский
Complete name : D:The.Legend.of.Hercules.2014.UHD.HDR.BDRemux.2160p.NovaLan.mkv
Format : Matroska
Format version : Version 4 / Version 2
File size : 56.1 GiB
Duration : 1 h 38 min
Overall bit rate : 81.4 Mb/s
Movie name : The Legend of Hercules 2014 - NovaLan
Encoded date : UTC 2018-02-20 10:37:23
Writing application : mkvmerge v20.0.0 ('I Am The Sun') 64-bit
Writing library : libebml v1.3.5 + libmatroska v1.4.8

Video
ID : 1
Format : HEVC
Format/Info : High Efficiency Video Coding
Format profile : Main [email protected]@High
Codec ID : V_MPEGH/ISO/HEVC
Duration : 1 h 38 min
Bit rate : 71.9 Mb/s
Width : 3 840 pixels
Height : 2 160 pixels
Display aspect ratio : 16:9
Frame rate mode : Constant
Frame rate : 23.976 (24000/1001) FPS
Color space : YUV
Chroma subsampling : 4:2:0 (Type 2)
Bit depth : 10 bits
Bits/(Pixel*Frame) : 0.361
Stream size : 49.5 GiB (88%)
Title : The Legend of Hercules 2014 - NovaLan
Writing library : ATEME Titan File 3.7.9 (4.7.9.0)
Default : Yes
Forced : No
Color range : Limited
Color primaries : BT.2020
Transfer characteristics : PQ
Matrix coefficients : BT.2020 non-constant
Mastering display color pri : Display P3
Mastering display luminance : min: 0.0000 cd/m2, max: 1000 cd/m2
Maximum Content Light Level : 1000 cd/m2
Maximum Frame-Average Light : 643 cd/m2

Audio #1
ID : 2
Format : DTS
Format/Info : Digital Theater Systems
Format profile : MA / Core
Codec ID : A_DTS
Duration : 1 h 38 min
Bit rate mode : Variable / Constant
Bit rate : 4 150 kb/s / 1 509 kb/s
Channel(s) : 6 channels
Channel positions : Front: L C R, Side: L R, LFE
Sampling rate : 48.0 kHz
Frame rate : 93.750 FPS (512 SPF)
Bit depth : 24 bits
Compression mode : Lossless / Lossy
Stream size : 2.86 GiB (5%)
Language : Russian
Default : Yes
Forced : No

Audio #2
ID : 3
Format : AC-3
Format/Info : Audio Coding 3
Codec ID : A_AC3
Duration : 1 h 38 min
Bit rate mode : Constant
Bit rate : 448 kb/s
Channel(s) : 6 channels
Channel positions : Front: L C R, Side: L R, LFE
Sampling rate : 48.0 kHz
Frame rate : 31.250 FPS (1536 SPF)
Bit depth : 16 bits
Compression mode : Lossy
Stream size : 316 MiB (1%)
Language : Ukrainian
Service kind : Complete Main
Default : No
Forced : No

Audio #3
ID : 4
Format : DTS
Format/Info : Digital Theater Systems
Format profile : MA / Core
Codec ID : A_DTS
Duration : 1 h 38 min
Bit rate mode : Variable / Constant
Bit rate : 4 526 kb/s / 1 509 kb/s
Channel(s) : 8 channels / 6 channels
Channel positions : Front: L C R, Side: L R, Back: L R, LFE / Front: L C R, Side: L R, LFE
Sampling rate : 48.0 kHz
Frame rate : 93.750 FPS (512 SPF)
Bit depth : 24 bits
Compression mode : Lossless / Lossy
Stream size : 3.12 GiB (6%)
Language : English
Default : No
Forced : No

Audio #4
ID : 5
Format : AC-3
Format/Info : Audio Coding 3
Codec ID : A_AC3
Duration : 1 h 38 min
Bit rate mode : Constant
Bit rate : 192 kb/s
Channel(s) : 2 channels
Channel positions : Front: L R
Sampling rate : 48.0 kHz
Frame rate : 31.250 FPS (1536 SPF)
Bit depth : 16 bits
Compression mode : Lossy
Stream size : 135 MiB (0%)
Language : English
Service kind : Complete Main
Default : No
Forced : No

Audio #5
ID : 6
Format : AC-3
Format/Info : Audio Coding 3
Codec ID : A_AC3
Duration : 1 h 38 min
Bit rate mode : Constant
Bit rate : 224 kb/s
Channel(s) : 2 channels
Channel positions : Front: L R
Sampling rate : 48.0 kHz
Frame rate : 31.250 FPS (1536 SPF)
Bit depth : 16 bits
Compression mode : Lossy
Stream size : 158 MiB (0%)
Language : English
Service kind : Complete Main
Default : No
Forced : No

Text #1
ID : 7
Format : UTF-8
Codec ID : S_TEXT/UTF8
Codec ID/Info : UTF-8 Plain Text
Duration : 1 h 26 min
Bit rate : 67 b/s
Count of elements : 741
Stream size : 42.5 KiB (0%)
Language : Russian
Default : No
Forced : No

Text #2
ID : 8
Format : UTF-8
Codec ID : S_TEXT/UTF8
Codec ID/Info : UTF-8 Plain Text
Duration : 1 h 26 min
Bit rate : 38 b/s
Count of elements : 740
Stream size : 24.6 KiB (0%)
Language : English
Default : No
Forced : No

Menu
00:00:00.000 : en:Chapter 1
00:05:36.252 : en:Chapter 2
00:10:35.051 : en:Chapter 3
00:17:11.864 : en:Chapter 4
00:23:15.936 : en:Chapter 5
00:27:16.092 : en:Chapter 6
00:35:02.100 : en:Chapter 7
00:38:07.618 : en:Chapter 8
00:44:51.105 : en:Chapter 9
00:50:43.248 : en:Chapter 10
00:56:35.433 : en:Chapter 11
01:00:16.112 : en:Chapter 12
01:06:19.767 : en:Chapter 13
01:11:13.352 : en:Chapter 14
01:17:30.896 : en:Chapter 15
01:23:31.881 : en:Chapter 16



Скачать Геракл: Начало легенды через торрент http://i102.fastpic.ru/big/2018/0220/be/1701088f7c08eb2d8c3c464be6d829be.png Скачать, смотреть онлайн Геракл: Начало легенды бесплантно в хорошем качестве Описание: 1200 г. до н. э. Древняя Греция. Прекрасная царица Алкмена попала под чары грозного бога Олимпа - Зевса и родила ему сына ... 7 10 3
Info! Золотая раздача, скачанное не засчитывается.
Торрент: Зарегистрирован [2018-02-20 14:21] · скачан: 61 раз
Статус: √ проверено
Размер: 56.12 GB
Как cкачать? Как скачать Геракл: Начало легенды через торрент | UTorrent

% Раздел Тема Автор DL S | L
Фильмы 2014 [DVDrip, WEB-DLRip, HDrip] [ 2.18 GB ] Геракл: Начало легенды / The Legend of Hercules | Лицензия | HDRip-AVC, White Smoke Скачать
1 | 0
Фильмы 2014 [DVDrip, WEB-DLRip, HDrip] [ 2.04 GB ] Геракл: Начало легенды / The Legend of Hercules | Лицензия | BDRip, Дубляж, Лицензия coc900 Скачать
1 | 0
Фильмы (Blu-ray, BD-Remux, HDDVD) [ 21.72 GB ] Геракл: Начало легенды / The Legend of Hercules | Лицензия | Blu-ray,Дубляж - [Лицензия Gofa Скачать
1 | 0
Фильмы 2014 [DVDrip, WEB-DLRip, HDrip] [ 2.91 GB ] Геракл: Начало легенды / The Legend of Hercules | Лицензия | BDRip-AVC potroks Скачать
1 | 0
Фильмы [HD 720p, 1080p] (Хороший звук DUB, MVO) [ 9.24 GB ] Геракл: Начало легенды / The Legend of Hercules | Лицензия | 1080p, DUB, Лицензия Seedtank Скачать
1 | 0
Фильмы (DVD фильмы) [ 4.64 GB ] Геракл: Начало легенды / The Legend of Hercules | | 2014, боевик, фэнтези, DVD9 voovaz Скачать
1 | 0
Фильмы 2014 [DVDrip, WEB-DLRip, HDrip] [ 1.46 GB ] Геракл: Начало легенды / The Legend of Hercules | Лицензия | BDRip, Дубляж, Лицензия кэп Скачать
1 | 0

28-11-2019 20:33  


Отключить вcю реклaмy на сайте, в т.ч. и в плеере онлайн просмотра!

    Дорогой пользователь! Огромная просьба, поблагодарите релизера, оцените раздачу и оставьте свои комментарий, если Вы скачали Геракл: Начало легенды через торрент бесплатно!!
    Комментировать посты могут только пользователи прошедшие не сложную регистрацию
    Показать сообщения:    


    Геракл: Начало легенды через торрент
    Скачать бесплатно Геракл: Начало легенды
    Геракл: Начало легенды скачать торрент
    Геракл: Начало легенды смотреть онлайн
    Cкачать фильм Геракл: Начало легенды бесплатно
    Геракл: Начало легенды скачать торрент в хорошем качестве
    Геракл: Начало легенды смотреть онлайн бесплатно в хорошем качестве
    Вы не можете начинать темы
    Вы не можете отвечать на сообщения
    Вы не можете редактировать свои сообщения
    Вы не можете удалять свои сообщения
    Вы не можете голосовать в опросах
    Вы не можете прикреплять файлы к сообщениям
    Вы можете скачивать файлы
    Геракл: Начало легенды / The Legend of Hercules [2014, боевик, фэнтези, UHD BDRemux 2160p] Дубляж - [Лицензия] смотреть онлайн, скачать торрент picoco.icu