Достать ножи: Стеклянная луковица

MVO

Добыча

Дубляж

Уэнсдэй

1 сезон

Тор

Дубляж

13 клиническая

1 сезон

Жестокая ночь

MVO

Одни из нас

1 сезон

Deluxe

pack

Рекомендуем

30

Пиратка

ВАЖНО

ВАЖНО

Ghostwire

Пиратка

jed

RePack

nioh2

RePack

RDR2

RePack

NEED FOR SPEED™ PAYBACK

RePack

скачать торрент

Кинопоиск HD

Острые козырьки 6 сезон

6 сезон

FAR CRY 6

RePack

скачать торрент

Лицензия

скачать торрент

MVO

1

1 сезон

скачать торрент

1 сезон

скачать торрент

Лицензия

  

Здравствуй, папа, Новый год! 2 / Daddy's Home 2 (Шон Андерс) [2017, комедия, UHD BDRemux 2160p] Дубляж (ukr) +Дубляж [Лицензия]

Здравствуй, папа, Новый год! 2 через торрент 5050.piratbit.fun

Размер: 42.18 GB | Добавлен: 4 года 11 мес. назад | Торрент скачан:57 раз
Смотреть онлайн | Скачать | Поддержите нас   

21-02-2018 04:34 Здравствуй, папа, Новый год! 2 Скачать торрент  

Год выпуска: 2017
Страна: США
Жанр: комедия
Продолжительность: 01:39:42
Перевод: Дублированный | Лицензия
Субтитры: Русские (forced, full), английские (Full, SDH, SDH colored)

Режиссер: Шон Андерс

rating

В ролях:

Уилл Феррелл, Марк Уолберг, Мэл Гибсон, Джон Литгоу, Линда Карделлини, Алессандра Амброзио, Оуэн Ваккаро, Скарлет Эстевез

Описание:

Отец и отчим, Дасти и Брэд, объединяются, чтобы организовать для своих детей идеальный рождественский праздник. Но их с горем пополам достигнутый нейтралитет оказывается под угрозой, когда к внукам приезжают олдскульный мачо-папаша Дасти и чувствительный и эмоциональный папочка Брэда. Они как нельзя кстати, чтобы превратить Рождество в кошмарный хаос...
Качество: BDRip 720p

Качество: UHD BDRemux 2160p
Формат: MKV

Видео: HEVC, HDR, 53814 Кбит/с, 3840x2160, 23.976 fps
Аудио#1: RUS| | AC-3, 48.0 kHz, 6 ch, 640 kb/s, CBR | Дублированный, BD 4K |
Аудио#2: UKR| | AC-3, 44.1 kHz, 2 ch, 192 kb/s, CBR | Дублированный, UKR |
Аудио#3: ENG| | TrueHD+Atmos, 48.0 kHz, 8 ch, 4 576 kb/s, VBR | Original |
Аудио#4: ENG| | AC-3, 48.0 kHz, 6 ch, 640 kb/s, CBR | Original, AC3 CORE |
Аудио#5: ENG| | AC-3, 48.0 kHz, 6 ch, 640 kb/s, CBR | Audiodeion |
скриншот  скриншот  скриншот  скриншот  

Общее
Уникальный идентификатор : 283774609526601351994618014310986270864 (0xD57D0075992A595FBAE0F0CBE919C890)
Полное имя : Daddys.Home.2.2017.2160p.BluRay.REMUX.HEVC.HDR.AC3.TrueHD.7.1.Atmos.IVA(RUS.UKR.ENG).mkv
Формат : Matroska
Версия формата : Version 4 / Version 2
Размер файла : 42,2 Гбайт
Продолжительность : 1 ч. 39 м.
Режим общего битрейта : Переменный
Общий поток : 60,6 Мбит/сек
Название фильма : Daddys.Home.2.2017.2160p.BluRay.REMUX.HEVC.HDR.AC3.TrueHD.7.1.Atmos.IVA(RUS.UKR.ENG)
Дата кодирования : UTC 2018-02-21 03:00:18
Программа кодирования : mkvmerge v19.0.0 ('Brave Captain') 64-bit
Библиотека кодирования : libebml v1.3.5 + libmatroska v1.4.8
Обложка : Yes

Видео
Идентификатор : 1
Формат : HEVC
Формат/Информация : High Efficiency Video Coding
Профиль формата : Main [email protected]@High
Идентификатор кодека : V_MPEGH/ISO/HEVC
Продолжительность : 1 ч. 39 м.
Битрейт : 53,8 Мбит/сек
Ширина : 3840 пикселей
Высота : 2160 пикселей
Соотношение сторон : 16:9
Режим частоты кадров : Постоянный
Частота кадров : 23,976 (24000/1001) кадра/сек
Цветовое пространство : YUV
Субдискретизация насыщенности : 4:2:0 (Type 2)
Битовая глубина : 10 бит
Бит/(Пиксели*Кадры) : 0.271
Размер потока : 37,5 Гбайт (89%)
Заголовок : Daddys.Home.2.2017.2160p.BluRay.REMUX.HEVC.HDR
Default : Да
Forced : Нет
Цветовой диапазон : Limited
Основные цвета : BT.2020
Характеристики трансфера : PQ
Коэффициенты матрицы : BT.2020 non-constant
MasteringDisplay_ColorPrimaries : Display P3
MasteringDisplay_Luminance : min: 0.0001 cd/m2, max: 1000 cd/m2

Аудио #1
Идентификатор : 2
Формат : AC-3
Формат/Информация : Audio Coding 3
Идентификатор кодека : A_AC3
Продолжительность : 1 ч. 39 м.
Вид битрейта : Постоянный
Битрейт : 640 Кбит/сек
Каналы : 6 каналов
Расположение каналов : Front: L C R, Side: L R, LFE
Частота : 48,0 КГц
Частота кадров : 31,250 кадров/сек (1536 SPF)
Битовая глубина : 16 бит
Метод сжатия : С потерями
Размер потока : 456 Мбайт (1%)
Заголовок : | Дублированный, BD 4K |
Язык : Russian
ServiceKind/String : Complete Main
Default : Да
Forced : Нет

Аудио #2
Идентификатор : 3
Формат : AC-3
Формат/Информация : Audio Coding 3
Идентификатор кодека : A_AC3
Продолжительность : 1 ч. 39 м.
Вид битрейта : Постоянный
Битрейт : 192 Кбит/сек
Каналы : 2 канала
Расположение каналов : Front: L R
Частота : 44,1 КГц
Частота кадров : 28,711 кадров/сек (1536 SPF)
Битовая глубина : 16 бит
Метод сжатия : С потерями
Размер потока : 137 Мбайт (0%)
Заголовок : | Дублированный, UKR |
Язык : Ukrainian
ServiceKind/String : Complete Main
Default : Нет
Forced : Нет

Аудио #3
Идентификатор : 4
Формат : TrueHD
Профиль формата : TrueHD+Atmos / TrueHD
Идентификатор кодека : A_TRUEHD
Продолжительность : 1 ч. 39 м.
Вид битрейта : Переменный
Битрейт : 4576 Кбит/сек
Максимальный битрейт : 7641 Кбит/сек
Каналы : Object Based / 8 каналов
Расположение каналов : Object Based / Front: L C R, Side: L R, Back: L R, LFE
Частота : / 48,0 КГц
Частота кадров : 1200,000 кадров/сек (40 SPF)
Метод сжатия : Без потерь
Задержка видео : 32 мс.
Размер потока : 3,19 Гбайт (8%)
Заголовок : | Original |
Язык : English
Default : Нет
Forced : Нет

Аудио #4
Идентификатор : 5
Формат : AC-3
Формат/Информация : Audio Coding 3
Идентификатор кодека : A_AC3
Продолжительность : 1 ч. 39 м.
Вид битрейта : Постоянный
Битрейт : 640 Кбит/сек
Каналы : 6 каналов
Расположение каналов : Front: L C R, Side: L R, LFE
Частота : 48,0 КГц
Частота кадров : 31,250 кадров/сек (1536 SPF)
Битовая глубина : 16 бит
Метод сжатия : С потерями
Задержка видео : 31 мс.
Размер потока : 456 Мбайт (1%)
Заголовок : | AC3 CORE |
Язык : English
ServiceKind/String : Complete Main
Default : Нет
Forced : Нет

Аудио #5
Идентификатор : 6
Формат : AC-3
Формат/Информация : Audio Coding 3
Идентификатор кодека : A_AC3
Продолжительность : 1 ч. 39 м.
Вид битрейта : Постоянный
Битрейт : 640 Кбит/сек
Каналы : 6 каналов
Расположение каналов : Front: L C R, Side: L R, LFE
Частота : 48,0 КГц
Частота кадров : 31,250 кадров/сек (1536 SPF)
Битовая глубина : 16 бит
Метод сжатия : С потерями
Размер потока : 456 Мбайт (1%)
Заголовок : | Audiodescription |
Язык : English
ServiceKind/String : Complete Main
Default : Нет
Forced : Нет

Текст #1
Идентификатор : 7
Формат : UTF-8
Идентификатор кодека : S_TEXT/UTF8
Идентификатор кодека/Информация : UTF-8 Plain Text
Продолжительность : 1 ч. 38 м.
Битрейт : 1 бит/сек
ElementCount : 19
Размер потока : 928 байт (0%)
Заголовок : Forced
Язык : Russian
Default : Да
Forced : Да

Текст #2
Идентификатор : 8
Формат : UTF-8
Идентификатор кодека : S_TEXT/UTF8
Идентификатор кодека/Информация : UTF-8 Plain Text
Продолжительность : 1 ч. 38 м.
Битрейт : 136 бит/сек
ElementCount : 1650
Размер потока : 98,4 Кбайт (0%)
Заголовок : Full
Язык : Russian
Default : Нет
Forced : Нет

Текст #3
Идентификатор : 9
Формат : UTF-8
Идентификатор кодека : S_TEXT/UTF8
Идентификатор кодека/Информация : UTF-8 Plain Text
Продолжительность : 1 ч. 38 м.
Битрейт : 101 бит/сек
ElementCount : 2337
Размер потока : 72,7 Кбайт (0%)
Заголовок : Full
Язык : English
Default : Нет
Forced : Нет

Текст #4
Идентификатор : 10
Формат : UTF-8
Идентификатор кодека : S_TEXT/UTF8
Идентификатор кодека/Информация : UTF-8 Plain Text
Продолжительность : 1 ч. 38 м.
Битрейт : 106 бит/сек
ElementCount : 2260
Размер потока : 77,1 Кбайт (0%)
Заголовок : SDH
Язык : English
Default : Нет
Forced : Нет

Текст #5
Идентификатор : 11
Формат : UTF-8
Идентификатор кодека : S_TEXT/UTF8
Идентификатор кодека/Информация : UTF-8 Plain Text
Продолжительность : 1 ч. 38 м.
Битрейт : 139 бит/сек
ElementCount : 2260
Размер потока : 101 Кбайт (0%)
Заголовок : SDH, colored
Язык : English
Default : Нет
Forced : Нет

Меню
00:00:00.000 : en:Chapter 1
00:08:08.529 : en:Chapter 2
00:16:08.092 : en:Chapter 3
00:21:44.052 : en:Chapter 4
00:27:40.158 : en:Chapter 5
00:32:47.423 : en:Chapter 6
00:40:49.029 : en:Chapter 7
00:47:57.165 : en:Chapter 8
00:52:27.894 : en:Chapter 9
01:00:08.730 : en:Chapter 10
01:08:37.363 : en:Chapter 11
01:15:23.101 : en:Chapter 12
01:26:24.846 : en:Chapter 13
01:33:34.942 : en:Chapter 14




Скачать Здравствуй, папа, Новый год! 2 через торрент http://lostpix.com/img/2018-02/21/hczvehd3pgev0x02kvs3gpuf0.jpg Скачать, смотреть онлайн Здравствуй, папа, Новый год! 2 бесплантно в хорошем качестве Описание: Отец и отчим, Дасти и Брэд, объединяются, чтобы организовать для своих детей идеальный рождественский праздник. Но их с горем ... 10 10 4
Торрент: Зарегистрирован [2018-02-21 04:34] · скачан: 57 раз
Статус: √ проверено
Размер: 42.18 GB
Как cкачать? Как скачать Здравствуй, папа, Новый год! 2 через торрент | UTorrent

% Раздел Тема Автор DL S | L
Фильмы 2017 [DVDrip, WEB-DLRip, HDrip] (DUB, MVO) [ 1.46 GB ] Здравствуй, папа, Новый год! 2 / Daddy's Home 2 | Лицензия | BDRip Twi7ter Скачать
1 | 0
Ultra HD (UHD: 2K, 4K, 8K) [ 55.33 GB ] Здравствуй, папа, Новый год! 2 / Daddy's Home 2 | Лицензия EUR | 2160p sheker187 Скачать
1 | 0

28-11-2019 20:33  


Отключить вcю реклaмy на сайте, в т.ч. и в плеере онлайн просмотра!

    Дорогой пользователь! Огромная просьба, поблагодарите релизера, оцените раздачу и оставьте свои комментарий, если Вы скачали Здравствуй, папа, Новый год! 2 через торрент бесплатно!!
    Комментировать посты могут только пользователи прошедшие не сложную регистрацию
    Показать сообщения:    


    Здравствуй, папа, Новый год! 2 через торрент
    Скачать бесплатно Здравствуй, папа, Новый год! 2
    Здравствуй, папа, Новый год! 2 скачать торрент
    Здравствуй, папа, Новый год! 2 смотреть онлайн
    Cкачать фильм Здравствуй, папа, Новый год! 2 бесплатно
    Здравствуй, папа, Новый год! 2 скачать торрент в хорошем качестве
    Здравствуй, папа, Новый год! 2 смотреть онлайн бесплатно в хорошем качестве
    Вы не можете начинать темы
    Вы не можете отвечать на сообщения
    Вы не можете редактировать свои сообщения
    Вы не можете удалять свои сообщения
    Вы не можете голосовать в опросах
    Вы не можете прикреплять файлы к сообщениям
    Вы можете скачивать файлы
    Здравствуй, папа, Новый год! 2 / Daddy's Home 2 [2017, комедия, UHD BDRemux 2160p] Дубляж +Дубляж [Лицензия] смотреть онлайн, скачать торрент picoco.icu