Достать ножи: Стеклянная луковица

MVO

Добыча

Дубляж

Уэнсдэй

1 сезон

Тор

Дубляж

13 клиническая

1 сезон

Жестокая ночь

MVO

Одни из нас

1 сезон

Deluxe

pack

Рекомендуем

30

Пиратка

ВАЖНО

ВАЖНО

Ghostwire

Пиратка

jed

RePack

nioh2

RePack

RDR2

RePack

NEED FOR SPEED™ PAYBACK

RePack

скачать торрент

Кинопоиск HD

Острые козырьки 6 сезон

6 сезон

FAR CRY 6

RePack

скачать торрент

Лицензия

скачать торрент

MVO

1

1 сезон

скачать торрент

1 сезон

скачать торрент

Лицензия

  

Марсианин / The Martian (Ридли Скотт) [2015, фантастика, приключения, UHD BDRemux 2160p] [Theatrical Cut] Дубляж + 3xAVO

Марсианин через торрент 5050.piratbit.fun

Размер: 47.74 GB | Добавлен: 3 года 9 мес. назад | Торрент скачан:48 раз
Смотреть онлайн | Скачать | Поддержите нас   

22-02-2018 05:13 Марсианин Скачать торрент  

Марсианин / The MartianТеатральная версия
Год выпуска: 2015
Страна: Великобритания, США
Жанр: фантастика, приключения
Продолжительность: 02:21:37
Перевод: Дублированный, авторский
Субтитры: русские (forced, full), английские (forced, full)
Режиссер: Ридли Скотт
В ролях:

Мэтт Дэймон (Mark Watney), Джессика Честейн (Melissa Lewis), Чиветель Эджиофор (Vincent Kapoor), Кристен Уиг (Annie Montrose), Джефф Дэниелс (Teddy Sanders), Майкл Пенья (Rick Martinez), Шон Бин (Mitch Henderson), Кейт Мара (Beth Johanssen), Себастьян Стэн (Chris Beck), Аксель Хенни (Alex Vogel), Бенедикт Вонг (Bruce Ng), Маккензи Дэвис (Mindy Park)
Описание:
Марсианская миссия «Арес-3» в процессе работы была вынуждена экстренно покинуть планету из-за надвигающейся песчаной бури. Инженер и биолог Марк Уотни получил повреждение скафандра во время песчаной бури. Сотрудники миссии, посчитав его погибшим, эвакуировались с планеты, оставив Марка одного.
Рейтинг:

MPAA: PG-13 - Детям до 13 лет просмотр не желателен
Качество: UHD BDRemux 2160p [The Martian 2015 2in1 2160p UHD Blu-ray HEVC TrueHD 7.1-FREQUENCY]
Контейнер: MKV
Видео: MPEG-H HEVC Video / 34736 kbps / 2160p / 23.976 fps / 16:9 / Main 10 @ Level 5.1 @ High / 4:2:0 / 10 bits / HDR10 / BT.2020 /
Аудио 1: Russian DTS / 5.1 / 48 kHz / 768 kbps / 24 bits |Дубляж, Blu-Ray|
Аудио 2: Russian DTS / 5.1 / 48 kHz / 768 kbps / 24 bits |А. Гаврилов|
Аудио 3: Russian DTS / 5.1 / 48 kHz / 755 kbps / 24 bits |Ю. Живов|
Аудио 4: Russian DTS-HD Master Audio / 7.1 / 48 kHz / 5039 kbps / 24-bit (DTS Core: 5.1 / 48 kHz / 1509 kbps / 24-bit) |Д. Есарев|
Аудио 5: English Dolby Atmos/TrueHD Audio / 7.1-Atmos / 48 kHz / 6116 kbps / 24-bit |original|
Аудио 6: English AC3 Core: 5.1 / 48 kHz / 640 kbps) |original|

• На самом деле поверхность Марса не красного цвета, а серого, и представляет собой каменистую пустыню, в которой нет обширных равнин и песка.
• В одной из сцен, когда Уотни едет на марсоходе, на небе можно заметить конденсационный след от самолета.
• Во время сцены, когда Марк Уотни сидит и смотрит на Ацидалийскую равнину на Марсе, на фоне слева можно заметить живые растения.
• В кадре, когда Марк Уотни приходит в сознание после бури на Марсе, в отражении его шлема можно заметить оператора.
• В начале фильма, когда показывают Космический центр Джонсона в Хьюстоне, на самом деле это Космический центр Кеннеди в штате Флорида.
• В фильме Уотни находит Патфайндер по парашюту, на самом деле полет исследовательского зонда Патфайндер сначала тормозился парашютом, затем зонд отсоединялся от парашюта, а при приземлении использовались надувные подушки.
• Когда Уотни поджигает водород, чтобы сделать воду, тот горит желтым пламенем. На самом деле пламя, которым горит водород, практически невидимое.
• В пресс-центре NASA американский флаг установлен слева от трибуны, что является нарушением Кодекса Соединенных Штатов. Он должен быть установлен справа от трибуны.
• Единственный способ, как Уотни мог использовать проколотую перчатку для перемещения в космосе, это расположить ее отверстием в сторону от его центра тяжести (например, он мог приложить перчатку к животу так, чтобы отверстие было направлено вперед, что толкало бы его в обратном направлении). Однако двигаться головой вперед с руками по бокам, как Железный человек, он мог бы только в случае, если бы проколол обе перчатки.
• Когда Уотни воссоединяется со своим экипажем, он говорит, что не мылся полтора года, однако до этого есть сцена, в которой показывают, как он после мытья вытирает полотенцем свое изможденное тело.
• Когда по видео-чату обсуждается, как облегчить Арес IV, в одном кадре в модели нет ничего, кроме одного места для Уотни, а в следующем кадре внутри модели виден также интерьер с модулем управления и другими частями, которые удаляют.
• Когда Марк отбывает на планируемое место посадки Ares IV, он оставляет свою подпись возле календаря с пройденными солами. Когда он возвращается за шлемом скафандра, подпись выглядит по-другому.
• Уотни избавляется от лишнего груза на корабле, в том числе от тяжелого носового обтекателя. Это, как следует из сюжета, не особо мешает ему подняться на орбиту. В реальности, если роль обтекателя настолько невелика, то его бы заменили более легкой конструкцией еще на стадии проектирования, так как это снижает массу при запуске с Земли.
• Давление в скафандре космонавта такое же, как если бы человек находился на высоте 5 километров над уровнем моря. Если в скафандре начинается утечка кислорода, она легко компенсируется посредством системы кислородообеспечения. Этого недостаточно для того, чтобы через небольшое отверстие в скафандре создать реактивную тягу.
• Чтобы определенную массу сдвинуть с места даже в безвоздушном пространстве, нужно приложить определенную тягу. Дырка в скафандре такую тягу просто не создаст, какое бы избыточное давление в скафандре не было. Но даже если отойти от реальности и предположить, что такое все же случилось — Марк устремился к Гермесу. При той скорости утечки кислорода он бы очень быстро получил взрывную декомпрессию и умер.
• Если на Земле атмосфера защищает от радиации, то на Марсе — практически нет. При попадании на Марс человек получает дозу радиации, в 15 раз превышающую уровень, допустимый для сотрудника АЭС за год. В фильме об этом ничего не говорится, но когда происходят события фильма — неизвестно (хотя автор книги и говорил, что в 2035 году): возможно, в будущем люди научились справляться с излучением.
• Один килограмм выводимого на орбиту груза требует огромных ресурсов. Поэтому килограммы, объемы, кубометры воздуха, еды, одежды — все это имеет большую ценность на пилотируемых кораблях. В фильме мы видим огромные пустые пространства космического корабля, коридоры, спортзалы с земными тренажерами, невообразимых размеров люки. Такая конструкция корабля невозможна.
• Уотни выкапывает отработавший реактор и помещает его в свой марсоход, чтобы тот обогревал его. После мы видим сцену, где главный герой доволен и ему так тепло, что он даже решил снять с себя скафандр. Но когда Уотни возвращается в марсоход после аварии (разгерметизация жилого модуля), зритель может заметить, что Марк пытается согреться и у него идет пар изо рта. Реактор — не обогреватель, который можно забыть включить/выключить.
Общее
Уникальный идентификатор : 250191324098694660504043799573168757370 (0xBC3918A682D352EC2B81516097699A7A)
Полное имя : H:\UHD\Марсианин.2015.THEATRICAL.UHD.BluRay.Remux.2160p.mkv
Формат : Matroska
Версия формата : Version 4
Размер файла : 47,7 Гбайт
Продолжительность : 2 ч. 21 м.
Режим общего битрейта : Переменный
Общий поток : 48,3 Мбит/сек
Дата кодирования : UTC 2019-04-09 15:33:34
Программа кодирования : mkvmerge v32.0.0 ('Astral Progressions') 64-bit
Библиотека кодирования : libebml v1.3.7 + libmatroska v1.5.0
Attachments : poster.jpg

Видео
Идентификатор : 1
Формат : HEVC
Формат/Информация : High Efficiency Video Coding
Коммерческое название : HDR10
Профиль формата : Main [email protected]@High
Идентификатор кодека : V_MPEGH/ISO/HEVC
Продолжительность : 2 ч. 21 м.
Битрейт : 34,7 Мбит/сек
Ширина : 3840 пикселей
Высота : 2160 пикселей
Соотношение сторон : 16:9
Режим частоты кадров : Постоянный
Частота кадров : 23,976 (24000/1001) кадра/сек
Цветовое пространство : YUV
Субдискретизация насыщенности : 4:2:0 (Type 2)
Битовая глубина : 10 бит
Бит/(Пиксели*Кадры) : 0.175
Размер потока : 34,4 Гбайт (72%)
Библиотека кодирования : ATEME Titan KFE 3.7.3 (4.7.3.1003)
Default : Да
Forced : Нет
Цветовой диапазон : Limited
Основные цвета : BT.2020
Характеристики трансфера : PQ
Коэффициенты матрицы : BT.2020 non-constant
MasteringDisplay_ColorPrimaries : Display P3
MasteringDisplay_Luminance : min: 0.0000 cd/m2, max: 1000 cd/m2

Аудио #1
Идентификатор : 2
Формат : DTS
Формат/Информация : Digital Theater Systems
Идентификатор кодека : A_DTS
Продолжительность : 2 ч. 21 м.
Вид битрейта : Постоянный
Битрейт : 768 Кбит/сек
Каналы : 6 каналов
Channel layout : C L R Ls Rs LFE
Частота : 48,0 КГц
Частота кадров : 93,750 кадра/сек (512 SPF)
Битовая глубина : 24 бит
Метод сжатия : С потерями
Размер потока : 778 Мбайт (2%)
Заголовок : Дубляж, Blu-Ray
Язык : Russian
Default : Да
Forced : Нет

Аудио #2
Идентификатор : 3
Формат : DTS
Формат/Информация : Digital Theater Systems
Идентификатор кодека : A_DTS
Продолжительность : 2 ч. 21 м.
Вид битрейта : Постоянный
Битрейт : 768 Кбит/сек
Каналы : 6 каналов
Channel layout : C L R Ls Rs LFE
Частота : 48,0 КГц
Частота кадров : 93,750 кадра/сек (512 SPF)
Битовая глубина : 24 бит
Метод сжатия : С потерями
Размер потока : 778 Мбайт (2%)
Заголовок : А. Гаврилов
Язык : Russian
Default : Нет
Forced : Нет

Аудио #3
Идентификатор : 4
Формат : DTS
Формат/Информация : Digital Theater Systems
Идентификатор кодека : A_DTS
Продолжительность : 2 ч. 21 м.
Вид битрейта : Постоянный
Битрейт : 755 Кбит/сек
Каналы : 6 каналов
Channel layout : C L R Ls Rs LFE
Частота : 48,0 КГц
Частота кадров : 93,750 кадра/сек (512 SPF)
Битовая глубина : 24 бит
Метод сжатия : С потерями
Размер потока : 764 Мбайт (2%)
Заголовок : Ю. Живов
Язык : Russian
Default : Нет
Forced : Нет

Аудио #4
Идентификатор : 5
Формат : DTS XLL
Формат/Информация : Digital Theater Systems
Коммерческое название : DTS-HD Master Audio
Идентификатор кодека : A_DTS
Продолжительность : 2 ч. 21 м.
Вид битрейта : Переменный
Битрейт : 5039 Кбит/сек
Каналы : 8 каналов
Channel layout : C L R LFE Lb Rb Lss Rss
Частота : 48,0 КГц
Частота кадров : 93,750 кадра/сек (512 SPF)
Битовая глубина : 24 бит
Метод сжатия : Без потерь
Размер потока : 4,98 Гбайт (10%)
Заголовок : Д. Есарев
Язык : Russian
Default : Нет
Forced : Нет

Аудио #5
Идентификатор : 6
Формат : MLP FBA 16-ch
Формат/Информация : Meridian Lossless Packing FBA with 16-channel presentation
Коммерческое название : Dolby TrueHD with Dolby Atmos
Идентификатор кодека : A_TRUEHD
Продолжительность : 2 ч. 21 м.
Вид битрейта : Переменный
Битрейт : 5475 Кбит/сек
Максимальный битрейт : 5997 Кбит/сек
Каналы : 8 каналов
Channel layout : L R C LFE Ls Rs Lb Rb
Частота : 48,0 КГц
Частота кадров : 1200,000 кадров/сек (40 SPF)
Метод сжатия : Без потерь
Размер потока : 5,42 Гбайт (11%)
Язык : English
Default : Нет
Forced : Нет
Number of dynamic objects : 13
Bed channel count : 1 канал
Bed channel configuration : LFE

Аудио #6
Идентификатор : 7
Формат : AC-3
Формат/Информация : Audio Coding 3
Коммерческое название : Dolby Digital
Идентификатор кодека : A_AC3
Продолжительность : 2 ч. 21 м.
Вид битрейта : Постоянный
Битрейт : 640 Кбит/сек
Каналы : 6 каналов
Channel layout : L R C LFE Ls Rs
Частота : 48,0 КГц
Частота кадров : 31,250 кадров/сек (1536 SPF)
Битовая глубина : 16 бит
Метод сжатия : С потерями
Размер потока : 648 Мбайт (1%)
Язык : English
ServiceKind/String : Complete Main
Default : Нет
Forced : Нет

Текст #1
Идентификатор : 8
Формат : UTF-8
Идентификатор кодека : S_TEXT/UTF8
Идентификатор кодека/Информация : UTF-8 Plain Text
Продолжительность : 2 ч. 20 м.
Битрейт : 3 бит/сек
ElementCount : 67
Размер потока : 3,16 Кбайт (0%)
Заголовок : forced
Язык : Russian
Default : Да
Forced : Нет

Текст #2
Идентификатор : 9
Формат : UTF-8
Идентификатор кодека : S_TEXT/UTF8
Идентификатор кодека/Информация : UTF-8 Plain Text
Продолжительность : 2 ч. 20 м.
Битрейт : 91 бит/сек
ElementCount : 1753
Размер потока : 94,0 Кбайт (0%)
Заголовок : full
Язык : Russian
Default : Нет
Forced : Нет

Текст #3
Идентификатор : 10
Формат : UTF-8
Идентификатор кодека : S_TEXT/UTF8
Идентификатор кодека/Информация : UTF-8 Plain Text
Продолжительность : 47 с. 666 мс.
Битрейт : 91 бит/сек
ElementCount : 12
Размер потока : 548 байт (0%)
Заголовок : forced
Язык : English
Default : Нет
Forced : Нет

Текст #4
Идентификатор : 11
Формат : UTF-8
Идентификатор кодека : S_TEXT/UTF8
Идентификатор кодека/Информация : UTF-8 Plain Text
Продолжительность : 2 ч. 13 м.
Битрейт : 54 бит/сек
ElementCount : 1617
Размер потока : 53,4 Кбайт (0%)
Заголовок : full
Язык : English
Default : Нет
Forced : Нет

Меню
00:00:00.000 : :Chapter 01
00:03:22.285 : :Chapter 02
00:10:08.983 : :Chapter 03
00:15:24.590 : :Chapter 04
00:18:25.187 : :Chapter 05
00:21:34.376 : :Chapter 06
00:24:28.091 : :Chapter 07
00:28:52.689 : :Chapter 08
00:31:36.644 : :Chapter 09
00:34:21.100 : :Chapter 10
00:39:13.434 : :Chapter 11
00:41:21.770 : :Chapter 12
00:46:23.530 : :Chapter 13
00:49:25.086 : :Chapter 14
00:56:15.747 : :Chapter 15
00:59:40.493 : :Chapter 16
01:02:23.823 : :Chapter 17
01:06:53.133 : :Chapter 18
01:09:52.980 : :Chapter 19
01:13:51.301 : :Chapter 20
01:18:38.254 : :Chapter 21
01:22:52.467 : :Chapter 22
01:30:41.268 : :Chapter 23
01:37:30.094 : :Chapter 24
01:43:31.997 : :Chapter 25
01:46:16.286 : :Chapter 26
01:50:18.736 : :Chapter 27
01:54:07.965 : :Chapter 28
01:57:49.312 : :Chapter 29
02:04:41.682 : :Chapter 30
02:11:05.732 : :Chapter 31
02:13:28.792 : :Chapter 32



Скачать Марсианин через торрент https://a.radikal.ru/a37/1904/45/ab808d29fede.png Скачать, смотреть онлайн Марсианин бесплантно в хорошем качестве Описание: Марсианская миссия «Арес-3» в процессе работы была вынуждена экстренно покинуть планету из-за надвигающейся песчаной бури. ... 9.5 10 4
Торрент: Зарегистрирован [2019-04-15 02:33] · скачан: 48 раз
Статус: √ проверено
Размер: 47.74 GB
Как cкачать? Как скачать Марсианин через торрент | UTorrent

28-11-2019 20:33  


Отключить вcю реклaмy на сайте, в т.ч. и в плеере онлайн просмотра!

    Дорогой пользователь! Огромная просьба, поблагодарите релизера, оцените раздачу и оставьте свои комментарий, если Вы скачали Марсианин через торрент бесплатно!!
    Комментировать посты могут только пользователи прошедшие не сложную регистрацию
    Показать сообщения:    


    Марсианин через торрент
    Скачать бесплатно Марсианин
    Марсианин скачать торрент
    Марсианин смотреть онлайн
    Cкачать фильм Марсианин бесплатно
    Марсианин скачать торрент в хорошем качестве
    Марсианин смотреть онлайн бесплатно в хорошем качестве
    Вы не можете начинать темы
    Вы не можете отвечать на сообщения
    Вы не можете редактировать свои сообщения
    Вы не можете удалять свои сообщения
    Вы не можете голосовать в опросах
    Вы не можете прикреплять файлы к сообщениям
    Вы можете скачивать файлы
    Марсианин / The Martian [2015, фантастика, приключения, UHD BDRemux 2160p] [Theatrical Cut] Дубляж + 3xAVO смотреть онлайн, скачать торрент picoco.icu