Достать ножи: Стеклянная луковица

MVO

Добыча

Дубляж

Уэнсдэй

1 сезон

Тор

Дубляж

13 клиническая

1 сезон

Жестокая ночь

MVO

Одни из нас

1 сезон

Deluxe

pack

Рекомендуем

30

Пиратка

ВАЖНО

ВАЖНО

Ghostwire

Пиратка

jed

RePack

nioh2

RePack

RDR2

RePack

NEED FOR SPEED™ PAYBACK

RePack

скачать торрент

Кинопоиск HD

Острые козырьки 6 сезон

6 сезон

FAR CRY 6

RePack

скачать торрент

Лицензия

скачать торрент

MVO

1

1 сезон

скачать торрент

1 сезон

скачать торрент

Лицензия

  

Три билборда на границе Эббинга, Миссури / Three Billboards Outside Ebbing, Missouri (Мартин МакДона) [2017, драма, комедия, кримина, UHD BD Remux 2160p] AVO [Яроцкий] +MVO (ukr) [НеЗупиняй Продакшн] +Дубляж (rus, ukr) [Лицензия]

Три билборда на границе Эббинга, Миссури через торрент 5050.piratbit.fun

Размер: 53.08 GB | Добавлен: 4 года 11 мес. назад | Торрент скачан:149 раз
Смотреть онлайн | Скачать | Поддержите нас   

01-03-2018 05:38 Три билборда на границе Эббинга, Миссури Скачать торрент  

Три билборда на границе Эббинга, Миссури / Three Billboards Outside Ebbing, Missouri
Год выпуска: 2017
Страна: Великобритания США
Жанр: драма, комедия, криминал
Продолжительность: 01:55:20
Перевод:

#1: Дублированный | Лицензия
#2: Авторский | Михаил Яроцкий (ненормативная лексика)

Субтитры: Русские (полные (BD CEE), форсированные), украинские (полные), английские (полные, SDH, SDH Colored)

Режиссер: Мартин МакДона

rating

В ролях:

Фрэнсис МакДорманд, Калеб Лэндри Джонс, Керри Кондон, Сэм Рокуэлл, Алехандро Барриос, Джейсон Редфорд, Даррел Бритт-Гибсон

Описание:

Спустя несколько месяцев после убийства дочери Милдред Хейс преступники так и не найдены. Отчаявшаяся женщина решается на смелый шаг, арендуя на въезде в город три биллборда с посланием к авторитетному главе полиции Уильяму Уиллоуби. Когда в ситуацию оказывается втянут ещё и заместитель шерифа, инфантильный маменькин сынок со склонностью к насилию, офицер Диксон, борьба между Милдред и властями города только усугубляется...

Качество: UHD BD Remux 2160p
Формат: MKV
Видео кодек: H.265
Аудио кодек: AC3/DTS

Видео: HEVC, 3840x2160 (16:9), 23.976 fps, 53.3 Mb/s (0.268 bit/pixel)
Аудио#1: |RUS| | DTS, 48.0 kHz, 6 ch, 768 kb/s, CBR | Дублированноый [Лицензия]
Аудио#2: |RUS| | DTS MA 48.0 kHz, 6 ch, 3 659 kb/s VBR | Авторский [Михаил Яроцкий]
Аудио#3: |UKR| | AC-3, 48.0 kHz, 6 ch, 448 kb/s, CBR | Дублированноый [Лицензия]
Аудио#4: |UKR| | DTS MA 48.0 kHz, 6 ch, 3 610 kb/s VBR |Многоголосый [НеЗупиняй Продакшн]
Аудио#5: |ENG| | DTS MA / Core, 48.0 kHz, 6 ch, 3 625 kb/s / 1 509 kb/s, VBR / CBR | Original |
Аудио#6: |ENG| | AC-3, 48.0 kHz, 6 ch, 448 kb/s, CBR | Audiodeion |
скриншот  скриншот  скриншот  скриншот  скриншот  скриншот  

Общее
Уникальный идентификатор : 121788278324989493643980599839942723735 (0x5B9F91B7C1936EC1251F1A7D2DE34897)
Полное имя : Three.Billboards.Outside.Ebbing.Missouri.2017.BDREMUX.2160p.HEVC.HDR.IVA(RUS.UKR.ENG).ExKinoRay.mkv
Формат : Matroska
Версия формата : Version 4 / Version 2
Размер файла : 53,1 Гбайт
Продолжительность : 1 ч. 55 м.
Общий поток : 65,9 Мбит/сек
Название фильма : Three Billboards Outside Ebbing Missouri 2017 4k from ExKinoRay
Дата кодирования : UTC 2018-03-01 02:54:09
Программа кодирования : mkvmerge v21.0.0 ('Tardigrades Will Inherit The Earth') 64-bit
Библиотека кодирования : libebml v1.3.5 + libmatroska v1.4.8
Обложка : Yes
Attachments : cover

Видео
Идентификатор : 1
Формат : HEVC
Формат/Информация : High Efficiency Video Coding
Профиль формата : Main [email protected]@High
Идентификатор кодека : V_MPEGH/ISO/HEVC
Продолжительность : 1 ч. 55 м.
Битрейт : 53,3 Мбит/сек
Ширина : 3840 пикселей
Высота : 2160 пикселей
Соотношение сторон : 16:9
Режим частоты кадров : Постоянный
Частота кадров : 23,976 (24000/1001) кадра/сек
Цветовое пространство : YUV
Субдискретизация насыщенности : 4:2:0 (Type 2)
Битовая глубина : 10 бит
Бит/(Пиксели*Кадры) : 0.268
Размер потока : 43,0 Гбайт (81%)
Заголовок : Three.Billboards.Outside.Ebbing.Missouri.2017.Bluray.REMUX.HDR
Язык : English
Default : Да
Forced : Нет
Цветовой диапазон : Limited
Основные цвета : BT.2020
Характеристики трансфера : PQ
Коэффициенты матрицы : BT.2020 non-constant
MasteringDisplay_ColorPrimaries : Display P3
MasteringDisplay_Luminance : min: 0.0050 cd/m2, max: 1000 cd/m2

Аудио #1
Идентификатор : 2
Формат : DTS
Формат/Информация : Digital Theater Systems
Идентификатор кодека : A_DTS
Продолжительность : 1 ч. 55 м.
Вид битрейта : Постоянный
Битрейт : 768 Кбит/сек
Каналы : 6 каналов
Расположение каналов : Front: L C R, Side: L R, LFE
Частота : 48,0 КГц
Частота кадров : 93,750 кадра/сек (512 SPF)
Битовая глубина : 24 бит
Метод сжатия : С потерями
Размер потока : 634 Мбайт (1%)
Заголовок : | Дубляж [License]
Язык : Russian
Default : Да
Forced : Нет

Аудио #2
Идентификатор : 3
Формат : DTS
Формат/Информация : Digital Theater Systems
Профиль формата : MA / Core
Идентификатор кодека : A_DTS
Продолжительность : 1 ч. 55 м.
Вид битрейта : Переменный / Постоянный
Битрейт : 3659 Кбит/сек / 1509 Кбит/сек
Каналы : 6 каналов
Расположение каналов : Front: L C R, Side: L R, LFE
Частота : 48,0 КГц
Частота кадров : 93,750 кадра/сек (512 SPF)
Битовая глубина : 24 бит
Метод сжатия : Без потерь / Lossy
Размер потока : 2,95 Гбайт (6%)
Заголовок : | AVO [Kyberpunk]
Язык : Russian
Default : Нет
Forced : Нет

Аудио #3
Идентификатор : 4
Формат : AC-3
Формат/Информация : Audio Coding 3
Идентификатор кодека : A_AC3
Продолжительность : 1 ч. 55 м.
Вид битрейта : Постоянный
Битрейт : 448 Кбит/сек
Каналы : 6 каналов
Расположение каналов : Front: L C R, Side: L R, LFE
Частота : 48,0 КГц
Частота кадров : 31,250 кадров/сек (1536 SPF)
Битовая глубина : 16 бит
Метод сжатия : С потерями
Задержка видео : 5 мс.
Размер потока : 370 Мбайт (1%)
Заголовок : | Дубляж [License]
Язык : Ukrainian
ServiceKind/String : Complete Main
Default : Нет
Forced : Нет

Аудио #4
Идентификатор : 5
Формат : DTS
Формат/Информация : Digital Theater Systems
Профиль формата : MA / Core
Идентификатор кодека : A_DTS
Продолжительность : 1 ч. 55 м.
Вид битрейта : Переменный / Постоянный
Битрейт : 3610 Кбит/сек / 1509 Кбит/сек
Каналы : 6 каналов
Расположение каналов : Front: L C R, Side: L R, LFE
Частота : 48,0 КГц
Частота кадров : 93,750 кадра/сек (512 SPF)
Битовая глубина : 24 бит
Метод сжатия : Без потерь / Lossy
Размер потока : 2,91 Гбайт (5%)
Заголовок : | MVO, DontStopProd |
Язык : Ukrainian
Default : Нет
Forced : Нет

Аудио #5
Идентификатор : 6
Формат : DTS
Формат/Информация : Digital Theater Systems
Профиль формата : MA / Core
Идентификатор кодека : A_DTS
Продолжительность : 1 ч. 55 м.
Вид битрейта : Переменный / Постоянный
Битрейт : 3625 Кбит/сек / 1509 Кбит/сек
Каналы : 6 каналов
Расположение каналов : Front: L C R, Side: L R, LFE
Частота : 48,0 КГц
Частота кадров : 93,750 кадра/сек (512 SPF)
Битовая глубина : 24 бит
Метод сжатия : Без потерь / Lossy
Размер потока : 2,92 Гбайт (6%)
Заголовок : | Original |
Язык : English
Default : Нет
Forced : Нет

Аудио #6
Идентификатор : 7
Формат : AC-3
Формат/Информация : Audio Coding 3
Идентификатор кодека : A_AC3
Продолжительность : 1 ч. 55 м.
Вид битрейта : Постоянный
Битрейт : 448 Кбит/сек
Каналы : 6 каналов
Расположение каналов : Front: L C R, Side: L R, LFE
Частота : 48,0 КГц
Частота кадров : 31,250 кадров/сек (1536 SPF)
Битовая глубина : 16 бит
Метод сжатия : С потерями
Задержка видео : 5 мс.
Размер потока : 370 Мбайт (1%)
Заголовок : | Audiodescription |
Язык : English
ServiceKind/String : Complete Main
Default : Нет
Forced : Нет

Текст #1
Идентификатор : 8
Формат : UTF-8
Идентификатор кодека : S_TEXT/UTF8
Идентификатор кодека/Информация : UTF-8 Plain Text
Продолжительность : 2 м. 31 с.
Битрейт : 7 бит/сек
ElementCount : 3
Размер потока : 137 байт (0%)
Заголовок : Forced
Язык : Russian
Default : Да
Forced : Да

Текст #2
Идентификатор : 9
Формат : UTF-8
Идентификатор кодека : S_TEXT/UTF8
Идентификатор кодека/Информация : UTF-8 Plain Text
Продолжительность : 1 ч. 53 м.
Битрейт : 77 бит/сек
ElementCount : 1154
Размер потока : 64,1 Кбайт (0%)
Заголовок : Full
Язык : Russian
Default : Нет
Forced : Нет

Текст #3
Идентификатор : 10
Формат : UTF-8
Идентификатор кодека : S_TEXT/UTF8
Идентификатор кодека/Информация : UTF-8 Plain Text
Продолжительность : 1 ч. 53 м.
Битрейт : 80 бит/сек
ElementCount : 1157
Размер потока : 66,7 Кбайт (0%)
Заголовок : Full
Язык : Ukrainian
Default : Нет
Forced : Нет

Текст #4
Идентификатор : 11
Формат : UTF-8
Идентификатор кодека : S_TEXT/UTF8
Идентификатор кодека/Информация : UTF-8 Plain Text
Продолжительность : 1 ч. 46 м.
Битрейт : 62 бит/сек
ElementCount : 1450
Размер потока : 48,8 Кбайт (0%)
Заголовок : Full
Язык : English
Default : Нет
Forced : Нет

Текст #5
Идентификатор : 12
Формат : UTF-8
Идентификатор кодека : S_TEXT/UTF8
Идентификатор кодека/Информация : UTF-8 Plain Text
Продолжительность : 1 ч. 49 м.
Битрейт : 60 бит/сек
ElementCount : 1657
Размер потока : 48,6 Кбайт (0%)
Заголовок : SDH
Язык : English
Default : Нет
Forced : Нет

Текст #6
Идентификатор : 13
Формат : UTF-8
Идентификатор кодека : S_TEXT/UTF8
Идентификатор кодека/Информация : UTF-8 Plain Text
Продолжительность : 1 ч. 49 м.
Битрейт : 68 бит/сек
ElementCount : 1657
Размер потока : 54,9 Кбайт (0%)
Заголовок : SDH Colored
Язык : English
Default : Нет
Forced : Нет

Меню
00:00:00.000 : en:Chapter 1
00:05:42.091 : en:Chapter 2
00:08:56.911 : en:Chapter 3
00:12:50.019 : en:Chapter 4
00:19:46.643 : en:Chapter 5
00:23:43.547 : en:Chapter 6
00:27:36.363 : en:Chapter 7
00:31:35.768 : en:Chapter 8
00:35:08.689 : en:Chapter 9
00:40:54.827 : en:Chapter 10
00:44:35.714 : en:Chapter 11
00:49:18.789 : en:Chapter 12
00:55:35.915 : en:Chapter 13
00:59:56.134 : en:Chapter 14
01:04:09.887 : en:Chapter 15
01:10:55.292 : en:Chapter 16
01:15:36.698 : en:Chapter 17
01:23:08.733 : en:Chapter 18
01:27:24.489 : en:Chapter 19
01:35:49.702 : en:Chapter 20
01:40:32.693 : en:Chapter 21
01:44:02.194 : en:Chapter 22
01:46:56.910 : en:Chapter 23
01:49:55.005 : en:Chapter 24




Скачать Три билборда на границе Эббинга, Миссури через торрент http://img12.lostpic.net/2018/03/01/10a91ee50a25e683ef870fed20ed77b2.jpg Скачать, смотреть онлайн Три билборда на границе Эббинга, Миссури бесплантно в хорошем качестве Описание: Спустя несколько месяцев после убийства дочери Милдред Хейс преступники так и не найдены. Отчаявшаяся женщина решается на смелый ... 10 10 4
Торрент: Зарегистрирован [2018-03-01 05:38] · скачан: 149 раз
Статус: √ проверено
Размер: 53.08 GB
Как cкачать? Как скачать Три билборда на границе Эббинга, Миссури через торрент | UTorrent

% Раздел Тема Автор DL S | L
Фильмы 2017 [DVDrip, WEB-DLRip, HDrip] (DUB, MVO) [ 2.18 GB ] Три билборда на границе Эббинга, Миссури / Three Billboards Outside Ebbing, Missouri | Лицензия | BDRip Twi7ter Скачать
1 | 0
R.G. Resident & PiratVoice - Фильмы, Видео [ 933 MB ] Три Билборда на Границе Эббинга, Миссури / Three Billboards Outside Ebbing, Missouri | Ы + Original | BDRip Клерик Скачать
1 | 0
Ultra HD (UHD: 2K, 4K, 8K) [ 15.14 GB ] Три билборда на границе Эббинга, Миссури / Three Billboards Outside Ebbing, Missouri | DUB + AVO | 2160p sheker187 Скачать
1 | 0
Фильмы 2017 [DVDrip, WEB-DLRip, HDrip] (DUB, MVO) [ 2.67 GB ] Три билборда на границе Эббинга, Миссури / Three Billboards Outside Ebbing, Missouri | Лицензия | HDRip-AVC Enigma2010 Скачать
1 | 0
Фильмы (Blu-ray, BD-Remux, HDDVD) [ 36.73 GB ] Три билборда на границе Эббинга, Миссури / Three Billboards Outside Ebbing, Missouri | Лицензия | BD Remux 1080p bober100 Скачать
1 | 0
Ultra HD (UHD: 2K, 4K, 8K) [ 48.85 GB ] Три билборда на границе Эббинга, Миссури / Three Billboards Outside Ebbing, Missouri | | BD Remux 2160p bober100 Скачать
1 | 0
Фильмы [HD 720p, 1080p] (Хороший звук DUB, MVO) [ 15.56 GB ] Три билборда на границе Эббинга, Миссури / Three Billboards Outside Ebbing, Missouri | | 1080p killermax2013 Скачать
1 | 0

28-11-2019 20:33  


Отключить вcю реклaмy на сайте, в т.ч. и в плеере онлайн просмотра!

02-03-2018 18:41 Три билборда на границе Эббинга, Миссури Скачать торрент  

Какая страшная эта Фрэнсис МакДорманд, пипец просто



    Дорогой пользователь! Огромная просьба, поблагодарите релизера, оцените раздачу и оставьте свои комментарий, если Вы скачали Три билборда на границе Эббинга, Миссури через торрент бесплатно!!
    Комментировать посты могут только пользователи прошедшие не сложную регистрацию
    Показать сообщения:    


    Три билборда на границе Эббинга, Миссури через торрент
    Скачать бесплатно Три билборда на границе Эббинга, Миссури
    Три билборда на границе Эббинга, Миссури скачать торрент
    Три билборда на границе Эббинга, Миссури смотреть онлайн
    Cкачать фильм Три билборда на границе Эббинга, Миссури бесплатно
    Три билборда на границе Эббинга, Миссури скачать торрент в хорошем качестве
    Три билборда на границе Эббинга, Миссури смотреть онлайн бесплатно в хорошем качестве
    Вы не можете начинать темы
    Вы не можете отвечать на сообщения
    Вы не можете редактировать свои сообщения
    Вы не можете удалять свои сообщения
    Вы не можете голосовать в опросах
    Вы не можете прикреплять файлы к сообщениям
    Вы можете скачивать файлы
    Три билборда на границе Эббинга, Миссури / Three Billboards Outside Ebbing, Missouri [2017, драма, комедия, кримина, UHD BD Remux 2160p] AVO [Яроцкий] +MVO [НеЗупиняй Продакшн] +Дубляж [Лицензия] смотреть онлайн, скачать торрент picoco.icu