Достать ножи: Стеклянная луковица

MVO

Добыча

Дубляж

Уэнсдэй

1 сезон

Тор

Дубляж

13 клиническая

1 сезон

Жестокая ночь

MVO

Одни из нас

1 сезон

Deluxe

pack

Рекомендуем

30

Пиратка

ВАЖНО

ВАЖНО

Ghostwire

Пиратка

jed

RePack

nioh2

RePack

RDR2

RePack

NEED FOR SPEED™ PAYBACK

RePack

скачать торрент

Кинопоиск HD

Острые козырьки 6 сезон

6 сезон

FAR CRY 6

RePack

скачать торрент

Лицензия

скачать торрент

MVO

1

1 сезон

скачать торрент

1 сезон

скачать торрент

Лицензия

  

Убийство в Восточном экспрессе / Murder on the Orient Express (Кеннет Брана) [2017, драма, криминал, детектив, UHD BDRemux 2160p] Дубляж (ukr) [Postmodern] +Дубляж [Лицензия]

Убийство в Восточном экспрессе через торрент 5050.piratbit.fun

Размер: 49.46 GB | Добавлен: 4 года 11 мес. назад | Торрент скачан:146 раз
Смотреть онлайн | Скачать | Поддержите нас   

05-03-2018 04:59 Убийство в Восточном экспрессе Скачать торрент  

Убийство в Восточном экспрессе / Murder on the Orient Express
Год выпуска: 2017
Страна: Мальта, США
Жанр: драма, криминал, детектив
Продолжительность: 01:53:55
Перевод: Дублированный - [Лицензия]
Субтитры: Русские, английские, украинские

Режиссер: Кеннет Брана

rating

В ролях:

Кеннет Брана, Пенелопа Крус, Уиллем Дефо, Джуди Денч, Джонни Депп, Джош Гад, Дерек Джекоби, Лесли Одом мл., Мишель Пфайффер, Дэйзи Ридли

Описание:

Путешествие на одном из самых роскошных поездов Европы неожиданно превращается в одну из самых стильных и захватывающих загадок в истории. Фильм рассказывает историю тринадцати пассажиров поезда, каждый из которых находится под подозрением. И только сыщик должен как можно быстрее разгадать головоломку, прежде чем преступник нанесет новый удар.

Качество: UHD BDRemux 2160p
Формат: MKV

Видео: HEVC, 3840x2160 (16:9), 23.976 fps, 55.2 Mb/s (0.278 bit/pixel)
Аудио#1: |RUS| | DTS, 48.0 kHz, 6 ch, 768 kb/s, CBR | Дублированный, Лицензия |
Аудио#2: |RUS| | AC-3, 48.0 kHz, 6 ch, 448 kb/s, CBR | Дублированный, Лицензия |
Аудио#3: |UKR| | AC-3, 48.0 kHz, 2 ch, 192 kb/s, CBR | Дублированный, 'Postmodern' |
Аудио#4: |ENG| | TrueHD 48.0 kHz, Object Based / 8 ch, 4 139 kb/s, VBR | Original |
Аудио#5: |ENG| | AC-3, 48.0 kHz, 6 ch, 640 kb/s, CBR | Original |
Аудио#6: |ENG| | AC-3, 48.0 kHz, 6 ch, 448 kb/s, CBR | Audiodeion |
Аудио#7: |ENG| | AC-3, 48.0 kHz, 2 ch, 224 kb/s, CBR | Commentary |
скриншот  скриншот  скриншот  

General
Unique ID : 286770925948262823981182072578521848107 (0xD7BE1243C0FAFB41FA506BB5F2B6592B)
Complete name : C:\Video111\Murder.on.the.Orient.Express.2017.2160p.Bluray.REMUX.HEVC.HDR.AC3.TrueHD.7.1.ExKinoRay.mkv
Format : Matroska
Format version : Version 4 / Version 2
File size : 49.5 GiB
Duration : 1 h 53 min
Overall bit rate mode : Variable
Overall bit rate : 62.2 Mb/s
Movie name : Murder.on.the.Orient.Express.2017.2160p.Bluray.REMUX.HEVC.HDR.AC3.TrueHD.7.1.IVA(RUS.UKR.ENG).ExKinoRay
Encoded date : UTC 2018-03-04 08:52:05
Writing application : mkvmerge v21.0.0 ('Tardigrades Will Inherit The Earth') 64-bit
Writing library : libebml v1.3.5 + libmatroska v1.4.8
Cover : Yes
Attachments : cover

Video
ID : 1
Format : HEVC
Format/Info : High Efficiency Video Coding
Format profile : Main [email protected]@High
Codec ID : V_MPEGH/ISO/HEVC
Duration : 1 h 53 min
Bit rate : 55.2 Mb/s
Width : 3 840 pixels
Height : 2 160 pixels
Display aspect ratio : 16:9
Frame rate mode : Constant
Frame rate : 23.976 (24000/1001) FPS
Color space : YUV
Chroma subsampling : 4:2:0 (Type 2)
Bit depth : 10 bits
Bits/(Pixel*Frame) : 0.278
Stream size : 43.9 GiB (89%)
Title : Murder.on.the.Orient.Express.2017.2160p.Bluray.REMUX.HEVC.HDR
Writing library : ATEME Titan File 3.8.12 (4.8.12.0)
Language : English
Default : Yes
Forced : No
Color range : Limited
Color primaries : BT.2020
Transfer characteristics : PQ
Matrix coefficients : BT.2020 non-constant
Mastering display color pri : Display P3
Mastering display luminance : min: 0.0050 cd/m2, max: 1000 cd/m2

Audio #1
ID : 2
Format : DTS
Format/Info : Digital Theater Systems
Codec ID : A_DTS
Duration : 1 h 53 min
Bit rate mode : Constant
Bit rate : 768 kb/s
Channel(s) : 6 channels
Channel positions : Front: L C R, Side: L R, LFE
Sampling rate : 48.0 kHz
Frame rate : 93.750 FPS (512 SPF)
Bit depth : 24 bits
Compression mode : Lossy
Stream size : 626 MiB (1%)
Title : Дубляж [License]
Language : Russian
Default : Yes
Forced : Yes

Audio #2
ID : 3
Format : AC-3
Format/Info : Audio Coding 3
Codec ID : A_AC3
Duration : 1 h 53 min
Bit rate mode : Constant
Bit rate : 448 kb/s
Channel(s) : 6 channels
Channel positions : Front: L C R, Side: L R, LFE
Sampling rate : 48.0 kHz
Frame rate : 31.250 FPS (1536 SPF)
Bit depth : 16 bits
Compression mode : Lossy
Stream size : 365 MiB (1%)
Title : Дубляж [License]
Language : Russian
Service kind : Complete Main
Default : No
Forced : No

Audio #3
ID : 4
Format : AC-3
Format/Info : Audio Coding 3
Codec ID : A_AC3
Duration : 1 h 53 min
Bit rate mode : Constant
Bit rate : 192 kb/s
Channel(s) : 2 channels
Channel positions : Front: L R
Sampling rate : 48.0 kHz
Frame rate : 31.250 FPS (1536 SPF)
Bit depth : 16 bits
Compression mode : Lossy
Stream size : 156 MiB (0%)
Title : | Дублированный, 'Postmodern' |
Language : Ukrainian
Service kind : Complete Main
Default : No
Forced : No

Audio #4
ID : 5
Format : TrueHD
Format profile : TrueHD+Atmos / TrueHD
Codec ID : A_TRUEHD
Duration : 1 h 53 min
Bit rate mode : Variable
Bit rate : 4 139 kb/s
Maximum bit rate : 7 662 kb/s
Channel(s) : Object Based / 8 channels
Channel positions : Object Based / Front: L C R, Side: L R, Back: L R, LFE
Sampling rate : / 48.0 kHz
Frame rate : 1 200.000 FPS (40 SPF)
Compression mode : Lossless
Delay relative to video : 32 ms
Stream size : 3.29 GiB (7%)
Title : | Original |
Language : English
Default : No
Forced : No

Audio #5
ID : 6
Format : AC-3
Format/Info : Audio Coding 3
Codec ID : A_AC3
Duration : 1 h 53 min
Bit rate mode : Constant
Bit rate : 640 kb/s
Channel(s) : 6 channels
Channel positions : Front: L C R, Side: L R, LFE
Sampling rate : 48.0 kHz
Frame rate : 31.250 FPS (1536 SPF)
Bit depth : 16 bits
Compression mode : Lossy
Delay relative to video : 31 ms
Stream size : 522 MiB (1%)
Title : | Original, AC3 CORE |
Language : English
Service kind : Complete Main
Default : No
Forced : No

Audio #6
ID : 7
Format : AC-3
Format/Info : Audio Coding 3
Codec ID : A_AC3
Duration : 1 h 53 min
Bit rate mode : Constant
Bit rate : 448 kb/s
Channel(s) : 6 channels
Channel positions : Front: L C R, Side: L R, LFE
Sampling rate : 48.0 kHz
Frame rate : 31.250 FPS (1536 SPF)
Bit depth : 16 bits
Compression mode : Lossy
Stream size : 365 MiB (1%)
Title : | Audiodescription |
Language : English
Service kind : Complete Main
Default : No
Forced : No

Audio #7
ID : 8
Format : AC-3
Format/Info : Audio Coding 3
Codec ID : A_AC3
Duration : 1 h 53 min
Bit rate mode : Constant
Bit rate : 224 kb/s
Channel(s) : 2 channels
Channel positions : Front: L R
Sampling rate : 48.0 kHz
Frame rate : 31.250 FPS (1536 SPF)
Bit depth : 16 bits
Compression mode : Lossy
Stream size : 183 MiB (0%)
Title : | Commentary |
Language : English
Service kind : Complete Main
Default : No
Forced : No

Text #1
ID : 9
Format : UTF-8
Codec ID : S_TEXT/UTF8
Codec ID/Info : UTF-8 Plain Text
Duration : 1 h 36 min
Bit rate : 1 b/s
Count of elements : 32
Stream size : 1.16 KiB (0%)
Title : Forced
Language : Russian
Default : Yes
Forced : Yes

Text #2
ID : 10
Format : UTF-8
Codec ID : S_TEXT/UTF8
Codec ID/Info : UTF-8 Plain Text
Duration : 1 h 53 min
Bit rate : 108 b/s
Count of elements : 1606
Stream size : 90.1 KiB (0%)
Title : Full
Language : Russian
Default : No
Forced : No

Text #3
ID : 11
Format : UTF-8
Codec ID : S_TEXT/UTF8
Codec ID/Info : UTF-8 Plain Text
Duration : 1 h 50 min
Bit rate : 1 b/s
Count of elements : 27
Stream size : 1.04 KiB (0%)
Title : Forced
Language : Ukrainian
Default : No
Forced : Yes

Text #4
ID : 12
Format : UTF-8
Codec ID : S_TEXT/UTF8
Codec ID/Info : UTF-8 Plain Text
Duration : 1 h 53 min
Bit rate : 110 b/s
Count of elements : 1574
Stream size : 91.7 KiB (0%)
Title : Full
Language : Ukrainian
Default : No
Forced : No

Text #5
ID : 13
Format : UTF-8
Codec ID : S_TEXT/UTF8
Codec ID/Info : UTF-8 Plain Text
Duration : 1 h 44 min
Bit rate : 72 b/s
Count of elements : 1844
Stream size : 55.4 KiB (0%)
Title : Full
Language : English
Default : No
Forced : No

Text #6
ID : 14
Format : UTF-8
Codec ID : S_TEXT/UTF8
Codec ID/Info : UTF-8 Plain Text
Duration : 1 h 45 min
Bit rate : 76 b/s
Count of elements : 1974
Stream size : 59.4 KiB (0%)
Title : SDH
Language : English
Default : No
Forced : No

Text #7
ID : 15
Format : UTF-8
Codec ID : S_TEXT/UTF8
Codec ID/Info : UTF-8 Plain Text
Duration : 1 h 45 min
Bit rate : 106 b/s
Count of elements : 1978
Stream size : 82.7 KiB (0%)
Title : SDH Colored
Language : English
Default : No
Forced : No

Menu
00:00:00.000 : en:Chapter 1
00:03:06.144 : en:Chapter 2
00:06:42.193 : en:Chapter 3
00:11:44.745 : en:Chapter 4
00:18:26.188 : en:Chapter 5
00:24:53.658 : en:Chapter 6
00:33:14.158 : en:Chapter 7
00:37:47.515 : en:Chapter 8
00:43:16.510 : en:Chapter 9
00:46:24.865 : en:Chapter 10
00:51:23.580 : en:Chapter 11
00:55:52.015 : en:Chapter 12
01:00:03.182 : en:Chapter 13
01:05:39.226 : en:Chapter 14
01:10:40.152 : en:Chapter 15
01:14:17.578 : en:Chapter 16
01:18:05.055 : en:Chapter 17
01:21:12.284 : en:Chapter 18
01:24:39.365 : en:Chapter 19
01:28:37.854 : en:Chapter 20
01:32:28.376 : en:Chapter 21
01:37:04.652 : en:Chapter 22
01:40:30.024 : en:Chapter 23
01:46:49.903 : en:Chapter 24




Скачать Убийство в Восточном экспрессе через торрент https://a.radikal.ru/a19/1803/6e/d353f6f2a3c5.jpg Скачать, смотреть онлайн Убийство в Восточном экспрессе бесплантно в хорошем качестве Описание: Путешествие на одном из самых роскошных поездов Европы неожиданно превращается в одну из самых стильных и захватывающих загадок в ... 10 10 4
Info! Золотая раздача, скачанное не засчитывается.
Торрент: Зарегистрирован [2018-03-05 04:59] · скачан: 146 раз
Статус: √ проверено
Размер: 49.46 GB
Как cкачать? Как скачать Убийство в Восточном экспрессе через торрент | UTorrent

% Раздел Тема Автор DL S | L
Ultra HD (UHD: 2K, 4K, 8K) [ 52.27 GB ] Убийство в Восточном экспрессе / Murder on the Orient Express | DUB | 2160p sheker187 Скачать
1 | 0
Ultra HD (UHD: 2K, 4K, 8K) [ 13.52 GB ] Убийство в Восточном экспрессе / Murder on the Orient Express | DUB | 2160p sheker187 Скачать
1 | 1
Фильмы 2017 [DVDrip, WEB-DLRip, HDrip] (DUB, MVO) [ 2.18 GB ] Убийство в Восточном экспрессе / Murder on the Orient Express | Лицензия | BDRip Twi7ter Скачать
1 | 0
Фильмы 2017 [DVDrip, WEB-DLRip, HDrip] (DUB, MVO) [ 1.46 GB ] Убийство в Восточном экспрессе / Murder on the Orient Express | Лицензия | BDRip Twi7ter Скачать
1 | 0
Фильмы [HD 720p, 1080p] (Хороший звук DUB, MVO) [ 11.14 GB ] Убийство в Восточном экспрессе / Murder on the Orient Express | iTunes | 1080p bober100 Скачать
1 | 0
Фильмы (Blu-ray, BD-Remux, HDDVD) [ 23.07 GB ] Убийство в Восточном экспрессе / Murder on the Orient Express | Лицензия | BD Remux 1080p bober100 Скачать
1 | 0
Фильмы (HD 720p, 1080p) (48-60 fps) [ 4.19 GB ] Убийство в Восточном экспрессе / Murder on the Orient Express | Дубляж | 720p / 60 FPS, Оригинал Tiberiumsun69 Скачать
2 | 1

28-11-2019 20:33  


Отключить вcю реклaмy на сайте, в т.ч. и в плеере онлайн просмотра!

    Дорогой пользователь! Огромная просьба, поблагодарите релизера, оцените раздачу и оставьте свои комментарий, если Вы скачали Убийство в Восточном экспрессе через торрент бесплатно!!
    Комментировать посты могут только пользователи прошедшие не сложную регистрацию
    Показать сообщения:    


    Убийство в Восточном экспрессе через торрент
    Скачать бесплатно Убийство в Восточном экспрессе
    Убийство в Восточном экспрессе скачать торрент
    Убийство в Восточном экспрессе смотреть онлайн
    Cкачать фильм Убийство в Восточном экспрессе бесплатно
    Убийство в Восточном экспрессе скачать торрент в хорошем качестве
    Убийство в Восточном экспрессе смотреть онлайн бесплатно в хорошем качестве
    Вы не можете начинать темы
    Вы не можете отвечать на сообщения
    Вы не можете редактировать свои сообщения
    Вы не можете удалять свои сообщения
    Вы не можете голосовать в опросах
    Вы не можете прикреплять файлы к сообщениям
    Вы можете скачивать файлы
    Убийство в Восточном экспрессе / Murder on the Orient Express [2017, драма, криминал, детектив, UHD BDRemux 2160p] Дубляж [Postmodern] +Дубляж [Лицензия] смотреть онлайн, скачать торрент picoco.icu