Достать ножи: Стеклянная луковица

MVO

Добыча

Дубляж

Уэнсдэй

1 сезон

Тор

Дубляж

13 клиническая

1 сезон

Жестокая ночь

MVO

Одни из нас

1 сезон

Deluxe

pack

Рекомендуем

30

Пиратка

ВАЖНО

ВАЖНО

Ghostwire

Пиратка

jed

RePack

nioh2

RePack

RDR2

RePack

NEED FOR SPEED™ PAYBACK

RePack

скачать торрент

Кинопоиск HD

Острые козырьки 6 сезон

6 сезон

FAR CRY 6

RePack

скачать торрент

Лицензия

скачать торрент

MVO

1

1 сезон

скачать торрент

1 сезон

скачать торрент

Лицензия

  

Призрак оперы / The Phantom of the Opera (Джоэл Шумахер) [2004, мюзикл, триллер, драма, UHD BDRemux 2160p] Дубляж - [Лицензия]

Призрак оперы через торрент 5050.piratbit.fun

Размер: 53.69 GB | Добавлен: 4 года 10 мес. назад | Торрент скачан:21 раз
Смотреть онлайн | Скачать | Поддержите нас   

18-03-2018 02:52 Призрак оперы Скачать торрент  

Призрак оперы / The Phantom of the Opera

Год выпуска: 2004
Страна: Великобритания, США
Жанр: мюзикл, триллер, драма, мелодрама
Продолжительность: 02:21:05
Перевод: Дублированный - [Лицензия]
Субтитры: Русские (forced, full), английские
Режиссер: Джоэл Шумахер
В ролях:

Джерард Батлер (The Phantom), Эмми Россам (Christine), Патрик Уилсон (Raoul), Миранда Ричардсон (Madame Giry), Минни Драйвер (Carlotta), Киран Хайндс (Firmin), Саймон Кэллоу (Andre), Виктор МакГуайр (Piangi), Дженнифер Эллисон (Meg Giry), Мюррэй Мелвин (Reyer), Кевин МакНэлли (Buquet), Джеймс Флит (Lefevre)
Описание:
Таинственный голос взывает к молодой оперной певице Кристине из мрачных недр величественной Парижской оперы. Лишь один человек в труппе знает, что невидимый покровитель и наставник Кристины, наводящий ужас на артистов, - обезображенный гений музыки, влюбленный в юную красавицу.
Рейтинг:

MPAA: PG-13 - Детям до 13 лет просмотр не желателен
Качество: UHD BDRemux 2160p
Формат: MKV
Видео: HEVC, 3840x2160 (16:9), 23.976 fps, 33.3 Mb/s (0.168 bit/pixel)
Аудио #1: DTS, 48.0 kHz, 6 ch, 1 510 kb/s, CBR (Russian)
Аудио #2: AC-3, 48.0 kHz, 6 ch, 448 kb/s, CBR (Russian)
Аудио #3: PCM, 96.0 kHz, 6 ch, 13.8 Mb/s, CBR (English)
Аудио #4: TrueHD, 96.0 kHz, 6 ch, 4 660 kb/s, VBR (English)
Аудио #5: AC-3, 48.0 kHz, 6 ch, 640 kb/s, CBR (English)
Навигация по главам: есть
Общее
Уникальный идентификатор : 250025871856101655383016691068557393534 (0xBC193B399E02F84516C4977E4B44FE7E)
Полное имя : The.Phantom.Of.The.Opera.2004.2160p.BluRay.REMUX.HEVC.HDR.IVA(RUS.ENG).ExKinoRay.mkv
Формат : Matroska
Версия формата : Version 4 / Version 2
Размер файла : 53,7 Гбайт
Продолжительность : 2 ч. 21 м.
Режим общего битрейта : Переменный
Общий поток : 54,5 Мбит/сек
Название фильма : The Phantom of the Opera (2004) 4K HDR | IVA (RUS.ENG) ExKinoRay
Дата кодирования : UTC 2018-03-18 01:35:45
Программа кодирования : mkvmerge v21.0.0 ('Tardigrades Will Inherit The Earth') 64-bit
Библиотека кодирования : libebml v1.3.5 + libmatroska v1.4.8
Обложка : Yes

Видео
Идентификатор : 1
Формат : HEVC
Формат/Информация : High Efficiency Video Coding
Профиль формата : Main [email protected]@High
Идентификатор кодека : V_MPEGH/ISO/HEVC
Продолжительность : 2 ч. 21 м.
Битрейт : 33,3 Мбит/сек
Ширина : 3840 пикселей
Высота : 2160 пикселей
Соотношение сторон : 16:9
Режим частоты кадров : Постоянный
Частота кадров : 23,976 (24000/1001) кадра/сек
Цветовое пространство : YUV
Субдискретизация насыщенности : 4:2:0 (Type 2)
Битовая глубина : 10 бит
Бит/(Пиксели*Кадры) : 0.168
Размер потока : 32,8 Гбайт (61%)
Заголовок : The.Phantom.Of.The.Opera.2004.2160p.BluRay.REMUX.HEVC.HDR
Язык : English
Default : Да
Forced : Нет
Цветовой диапазон : Limited
Основные цвета : BT.2020
Характеристики трансфера : PQ
Коэффициенты матрицы : BT.2020 non-constant
MasteringDisplay_ColorPrimaries : BT.2020
MasteringDisplay_Luminance : min: 0.0050 cd/m2, max: 1000 cd/m2

Аудио #1
Идентификатор : 2
Формат : DTS
Формат/Информация : Digital Theater Systems
Идентификатор кодека : A_DTS
Продолжительность : 2 ч. 21 м.
Вид битрейта : Постоянный
Битрейт : 1510 Кбит/сек
Каналы : 6 каналов
Расположение каналов : Front: L C R, Side: L R, LFE
Частота : 48,0 КГц
Частота кадров : 93,750 кадра/сек (512 SPF)
Битовая глубина : 24 бит
Метод сжатия : С потерями
Размер потока : 1,49 Гбайт (3%)
Заголовок : | Дублированный |
Язык : Russian
Default : Да
Forced : Нет

Аудио #2
Идентификатор : 3
Формат : AC-3
Формат/Информация : Audio Coding 3
Идентификатор кодека : A_AC3
Продолжительность : 2 ч. 21 м.
Вид битрейта : Постоянный
Битрейт : 448 Кбит/сек
Каналы : 6 каналов
Расположение каналов : Front: L C R, Side: L R, LFE
Частота : 48,0 КГц
Частота кадров : 31,250 кадров/сек (1536 SPF)
Битовая глубина : 16 бит
Метод сжатия : С потерями
Размер потока : 452 Мбайт (1%)
Заголовок : | Дублированный |
Язык : Russian
ServiceKind/String : Complete Main
Default : Нет
Forced : Нет

Аудио #3
Идентификатор : 4
Формат : PCM
Настройки формата : Little / Signed
Идентификатор кодека : A_PCM/INT/LIT
Продолжительность : 2 ч. 21 м.
Вид битрейта : Постоянный
Битрейт : 13,8 Мбит/сек
Каналы : 6 каналов
Частота : 96,0 КГц
Частота кадров : 200,000 кадров/сек (480 SPF)
Битовая глубина : 24 бит
Размер потока : 13,6 Гбайт (25%)
Заголовок : | Original |
Язык : English
Default : Нет
Forced : Нет

Аудио #4
Идентификатор : 5
Формат : TrueHD
Идентификатор кодека : A_TRUEHD
Продолжительность : 2 ч. 21 м.
Вид битрейта : Переменный
Битрейт : 4660 Кбит/сек
Максимальный битрейт : 7212 Кбит/сек
Каналы : 6 каналов
Расположение каналов : Front: L C R, Side: L R, LFE
Частота : 96,0 КГц
Частота кадров : 2400,000 кадров/сек (40 SPF)
Метод сжатия : Без потерь
Размер потока : 4,59 Гбайт (9%)
Заголовок : | Original |
Язык : English
Default : Нет
Forced : Нет

Аудио #5
Идентификатор : 6
Формат : AC-3
Формат/Информация : Audio Coding 3
Идентификатор кодека : A_AC3
Продолжительность : 2 ч. 21 м.
Вид битрейта : Постоянный
Битрейт : 640 Кбит/сек
Каналы : 6 каналов
Расположение каналов : Front: L C R, Side: L R, LFE
Частота : 48,0 КГц
Частота кадров : 31,250 кадров/сек (1536 SPF)
Битовая глубина : 16 бит
Метод сжатия : С потерями
Размер потока : 646 Мбайт (1%)
Заголовок : | Original |
Язык : English
ServiceKind/String : Complete Main
Default : Нет
Forced : Нет

Текст #1
Идентификатор : 7
Формат : UTF-8
Идентификатор кодека : S_TEXT/UTF8
Идентификатор кодека/Информация : UTF-8 Plain Text
Продолжительность : 2 ч. 10 м.
Битрейт : 40 бит/сек
ElementCount : 934
Размер потока : 39,0 Кбайт (0%)
Заголовок : Forced
Язык : Russian
Default : Да
Forced : Да

Текст #2
Идентификатор : 8
Формат : UTF-8
Идентификатор кодека : S_TEXT/UTF8
Идентификатор кодека/Информация : UTF-8 Plain Text
Продолжительность : 2 ч. 11 м.
Битрейт : 59 бит/сек
ElementCount : 1248
Размер потока : 57,8 Кбайт (0%)
Заголовок : Full
Язык : Russian
Default : Нет
Forced : Нет

Текст #3
Идентификатор : 9
Формат : UTF-8
Идентификатор кодека : S_TEXT/UTF8
Идентификатор кодека/Информация : UTF-8 Plain Text
Продолжительность : 2 ч. 14 м.
Битрейт : 39 бит/сек
ElementCount : 1297
Размер потока : 38,8 Кбайт (0%)
Язык : English
Default : Нет
Forced : Нет

Текст #4
Идентификатор : 10
Формат : UTF-8
Идентификатор кодека : S_TEXT/UTF8
Идентификатор кодека/Информация : UTF-8 Plain Text
Продолжительность : 2 ч. 8 м.
Битрейт : 41 бит/сек
ElementCount : 1236
Размер потока : 39,3 Кбайт (0%)
Язык : English
Default : Нет
Forced : Нет

Меню
00:00:00.000 : :Chapter 01
00:04:46.244 : :Chapter 02
00:07:32.743 : :Chapter 03
00:13:56.585 : :Chapter 04
00:17:29.673 : :Chapter 05
00:22:21.423 : :Chapter 06
00:26:00.600 : :Chapter 07
00:28:35.380 : :Chapter 08
00:30:59.274 : :Chapter 09
00:34:33.321 : :Chapter 10
00:41:09.008 : :Chapter 11
00:43:46.915 : :Chapter 12
00:47:35.477 : :Chapter 13
00:55:02.674 : :Chapter 14
00:58:29.923 : :Chapter 15
01:03:05.448 : :Chapter 16
01:05:50.196 : :Chapter 17
01:08:45.579 : :Chapter 18
01:14:22.374 : :Chapter 19
01:16:43.015 : :Chapter 20
01:26:03.658 : :Chapter 21
01:30:18.037 : :Chapter 22
01:33:49.040 : :Chapter 23
01:37:56.704 : :Chapter 24
01:41:42.137 : :Chapter 25
01:45:46.840 : :Chapter 26
01:48:57.697 : :Chapter 27
01:54:29.571 : :Chapter 28
01:57:04.183 : :Chapter 29
02:01:53.597 : :Chapter 30
02:07:38.609 : :Chapter 31
02:11:45.147 : :Chapter 32



Скачать Призрак оперы через торрент http://i100.fastpic.ru/big/2018/0318/70/56d1cdbb6724659495893546171ebe70.png Скачать, смотреть онлайн Призрак оперы бесплантно в хорошем качестве Описание: Таинственный голос взывает к молодой оперной певице Кристине из мрачных недр величественной Парижской оперы. Лишь один человек в ... 5.5 10 2
Торрент: Зарегистрирован [2018-03-18 02:52] · скачан: 21 раз
Статус: √ проверено
Размер: 53.69 GB
Как cкачать? Как скачать Призрак оперы через торрент | UTorrent

% Раздел Тема Автор DL S | L
Фильмы 2001-2005 [ 2.9 GB ] Призрак оперы / Phantom of the Opera, The | | BDRip кэп Скачать
1 | 0



Последний раз редактировалось: sheker187 (2018-03-18 05:38), всего редактировалось 1 раз

28-11-2019 20:33  


Отключить вcю реклaмy на сайте, в т.ч. и в плеере онлайн просмотра!

18-03-2018 04:40 Призрак оперы Скачать торрент  

sheker187 писал(а):

HEVC, 33.3 Мбит/с, 3840x1548, 23.976 Кадр/с

Исправьте на 3840x2160



    Дорогой пользователь! Огромная просьба, поблагодарите релизера, оцените раздачу и оставьте свои комментарий, если Вы скачали Призрак оперы через торрент бесплатно!!
    Комментировать посты могут только пользователи прошедшие не сложную регистрацию
    Показать сообщения:    


    Призрак оперы через торрент
    Скачать бесплатно Призрак оперы
    Призрак оперы скачать торрент
    Призрак оперы смотреть онлайн
    Cкачать фильм Призрак оперы бесплатно
    Призрак оперы скачать торрент в хорошем качестве
    Призрак оперы смотреть онлайн бесплатно в хорошем качестве
    Вы не можете начинать темы
    Вы не можете отвечать на сообщения
    Вы не можете редактировать свои сообщения
    Вы не можете удалять свои сообщения
    Вы не можете голосовать в опросах
    Вы не можете прикреплять файлы к сообщениям
    Вы можете скачивать файлы
    Призрак оперы / The Phantom of the Opera [2004, мюзикл, триллер, драма, UHD BDRemux 2160p] Дубляж - [Лицензия] смотреть онлайн, скачать торрент picoco.icu