Достать ножи: Стеклянная луковица

MVO

Добыча

Дубляж

Уэнсдэй

1 сезон

Тор

Дубляж

13 клиническая

1 сезон

Жестокая ночь

MVO

Одни из нас

1 сезон

Deluxe

pack

Рекомендуем

30

Пиратка

ВАЖНО

ВАЖНО

Ghostwire

Пиратка

jed

RePack

nioh2

RePack

RDR2

RePack

NEED FOR SPEED™ PAYBACK

RePack

скачать торрент

Кинопоиск HD

Острые козырьки 6 сезон

6 сезон

FAR CRY 6

RePack

скачать торрент

Лицензия

скачать торрент

MVO

1

1 сезон

скачать торрент

1 сезон

скачать торрент

Лицензия

  

Короче / Downsizing (Александр Пэйн) [2017, фантастика, драма, комедия, UHD Blu-Ray Remux 2160p] [Дубляж] [Лицензия]

Короче через торрент 5050.piratbit.fun

Размер: 70.87 GB | Добавлен: 4 года 10 мес. назад | Торрент скачан:108 раз
Смотреть онлайн | Скачать | Поддержите нас   

22-03-2018 08:54 Короче Скачать торрент  

Короче / Downsizing
Год выхода : 2017
Жанр : фантастика, драма, комедия
Страна : Норвегия, США
Продолжительность : 02:15:20
Перевод : Дублированный [Лицензия]
Субтитры : Русские, английские

Режиссер : Александр Пэйн

В главных ролях: Мэтт Дэймон, Кристоф Вальц, Хонг Чау, Кристен Уиг, Рольф Лассгорд, Ингьерд Эгеберг, Удо Кир, Сёрен Пильмарк, Джейн Ходишелл, Джейсон Судейкис

Описание: Фантастическая история о неожиданном решении проблемы перенаселения планеты: норвежские ученые придумывают технологию по уменьшению людей, благодаря которой через 200 лет весь мир можно сделать миниатюрным. К тому же мини-жизнь предлагает массу финансовых выгод, так что простой парень Пол и его жена Одри, недолго думая, решают оставить свое унылое существование в Омахе и пройти процедуру уменьшения. Это их решение повлечет за собой самые удивительные последствия...



Файл
Качество : Blu-Ray Remux (2160p)
Формат видео : MKV
Видео : HEVC, 70.0 Mбит/с, 3840x2160
Звук : AC3, 48.0 KHz, 6 ch, ~640 Kbps - Дубляж
Звук : DTS-HD MA, 48.0 KHz, 8 ch, ~4370 Kbps - ENG
General
Unique ID : 215694553338134611767152685754358156824 (0xA24542898F9DE36F29897DC42943CE18)
Complete name : G:\Video1\Downsizing.2017.D.BDREMUX.2160p.4K.UltraHD.HEVC.HDR.ExKinoRay.mkv
Format : Matroska
Format version : Version 4 / Version 2
File size : 70.9 GiB
Duration : 2 h 15 min
Overall bit rate : 75.0 Mb/s
Movie name : Downsizing 2017 from ExKinoRay
Encoded date : UTC 2018-03-22 07:14:09
Writing application : mkvmerge v21.0.0 ('Tardigrades Will Inherit The Earth') 64-bit
Writing library : libebml v1.3.5 + libmatroska v1.4.8

Video
ID : 1
Format : HEVC
Format/Info : High Efficiency Video Coding
Format profile : Main [email protected]@High
Codec ID : V_MPEGH/ISO/HEVC
Duration : 2 h 15 min
Bit rate : 70.0 Mb/s
Width : 3 840 pixels
Height : 2 160 pixels
Display aspect ratio : 16:9
Frame rate mode : Constant
Frame rate : 23.976 (24000/1001) FPS
Color space : YUV
Chroma subsampling : 4:2:0 (Type 2)
Bit depth : 10 bits
Bits/(Pixel*Frame) : 0.352
Stream size : 66.1 GiB (93%)
Language : English
Default : Yes
Forced : No
Color range : Limited
Color primaries : BT.2020
Transfer characteristics : PQ
Matrix coefficients : BT.2020 non-constant
Mastering display color pri : Display P3
Mastering display luminance : min: 0.0001 cd/m2, max: 1000 cd/m2

Audio #1
ID : 2
Format : AC-3
Format/Info : Audio Coding 3
Codec ID : A_AC3
Duration : 2 h 15 min
Bit rate mode : Constant
Bit rate : 640 kb/s
Channel(s) : 6 channels
Channel positions : Front: L C R, Side: L R, LFE
Sampling rate : 48.0 kHz
Frame rate : 31.250 FPS (1536 SPF)
Bit depth : 16 bits
Compression mode : Lossy
Stream size : 620 MiB (1%)
Title : Дубляж [License]
Language : Russian
Service kind : Complete Main
Default : Yes
Forced : Yes

Audio #2
ID : 3
Format : DTS
Format/Info : Digital Theater Systems
Format profile : MA / Core
Codec ID : A_DTS
Duration : 2 h 15 min
Bit rate mode : Variable / Constant
Bit rate : 4 370 kb/s / 1 509 kb/s
Channel(s) : 8 channels / 6 channels
Channel positions : Front: L C R, Side: L R, Back: L R, LFE / Front: L C R, Side: L R, LFE
Sampling rate : 48.0 kHz
Frame rate : 93.750 FPS (512 SPF)
Bit depth : 24 bits
Compression mode : Lossless / Lossy
Stream size : 4.13 GiB (6%)
Title : Original
Language : English
Default : No
Forced : No

Text #1
ID : 4
Format : UTF-8
Codec ID : S_TEXT/UTF8
Codec ID/Info : UTF-8 Plain Text
Duration : 1 h 27 min
Bit rate : 2 b/s
Count of elements : 27
Stream size : 1.49 KiB (0%)
Title : Forced
Language : Russian
Default : Yes
Forced : Yes

Text #2
ID : 5
Format : UTF-8
Codec ID : S_TEXT/UTF8
Codec ID/Info : UTF-8 Plain Text
Duration : 2 h 14 min
Bit rate : 86 b/s
Count of elements : 1761
Stream size : 85.4 KiB (0%)
Title : Full
Language : Russian
Default : No
Forced : No

Text #3
ID : 6
Format : UTF-8
Codec ID : S_TEXT/UTF8
Codec ID/Info : UTF-8 Plain Text
Duration : 2 h 4 min
Bit rate : 58 b/s
Count of elements : 1633
Stream size : 53.5 KiB (0%)
Title : Full
Language : English
Default : No
Forced : No

Text #4
ID : 7
Format : UTF-8
Codec ID : S_TEXT/UTF8
Codec ID/Info : UTF-8 Plain Text
Duration : 2 h 7 min
Bit rate : 63 b/s
Count of elements : 1914
Stream size : 58.8 KiB (0%)
Title : SDH
Language : English
Default : No
Forced : No

Text #5
ID : 8
Format : UTF-8
Codec ID : S_TEXT/UTF8
Codec ID/Info : UTF-8 Plain Text
Duration : 2 h 7 min
Bit rate : 72 b/s
Count of elements : 1914
Stream size : 67.1 KiB (0%)
Title : SDH Colored
Language : English
Default : No
Forced : No

Menu
00:00:00.000 : en:00:00:00.000
00:06:13.540 : en:00:06:13.540
00:10:38.346 : en:00:10:38.346
00:16:24.483 : en:00:16:24.483
00:22:14.667 : en:00:22:14.667
00:30:23.905 : en:00:30:23.905
00:38:44.364 : en:00:38:44.364
00:42:38.598 : en:00:42:38.598
00:47:36.687 : en:00:47:36.687
00:55:08.722 : en:00:55:08.722
01:04:35.830 : en:01:04:35.830
01:13:11.596 : en:01:13:11.596
01:21:13.202 : en:01:21:13.202
01:28:00.775 : en:01:28:00.775
01:33:25.308 : en:01:33:25.308
01:41:42.513 : en:01:41:42.513
01:44:11.871 : en:01:44:11.871
01:51:54.374 : en:01:51:54.374
01:58:36.443 : en:01:58:36.443
02:08:58.856 : en:02:08:58.856
скриншот  скриншот  скриншот  



Скачать Короче через торрент http://i101.fastpic.ru/big/2018/0201/ad/d566cb205c5ebf6cd8046cab87c1aaad.jpg Скачать, смотреть онлайн Короче бесплантно в хорошем качестве Описание: Фантастическая история о неожиданном решении проблемы перенаселения планеты: норвежские ученые придумывают технологию по ... 10 10 5
Info! Золотая раздача, скачанное не засчитывается.
Торрент: Зарегистрирован [2018-03-22 08:54] · скачан: 108 раз
Статус: √ проверено
Размер: 70.87 GB
Как cкачать? Как скачать Короче через торрент | UTorrent

% Раздел Тема Автор DL S | L
Ultra HD (UHD: 2K, 4K, 8K) [ 74.16 GB ] Короче / Downsizing | DUB | 2160p sheker187 Скачать
1 | 0
Фильмы [HD 720p, 1080p] (Хороший звук DUB, MVO) [ 7.64 GB ] Короче / Downsizing | Лицензия | 720p bober100 Скачать
1 | 0
Фильмы 2017 [DVDrip, WEB-DLRip, HDrip] (DUB, MVO) [ 1.46 GB ] Короче / Downsizing | Лицензия | BDRip Twi7ter Скачать
1 | 0
Фильмы [HD 720p, 1080p] (Хороший звук DUB, MVO) [ 16.97 GB ] Короче / Downsizing | Лицензия | 1080p bober100 Скачать
1 | 0
Фильмы [HD 720p, 1080p] (Хороший звук DUB, MVO) [ 7.12 GB ] Короче / Downsizing | Лицензия | 1080p, [HEVC Мичман37 Скачать
2 | 0
Фильмы 2017 [DVDrip, WEB-DLRip, HDrip] (DUB, MVO) [ 2.18 GB ] Короче / Downsizing | Лицензия | BDRip Twi7ter Скачать
1 | 0
Фильмы 2017 [DVDrip, WEB-DLRip, HDrip] (DUB, MVO) [ 2.18 GB ] Короче / Downsizing | Лицензия | BDRip bober100 Скачать
1 | 0

28-11-2019 20:33  


Отключить вcю реклaмy на сайте, в т.ч. и в плеере онлайн просмотра!

23-03-2018 17:13 Короче Скачать торрент  

Очень скучный и не понятный фильм. О чем он я так и не понял. Никакого экшена и по сути сюжета. Очень ждал его, понравилась идея с уменьшением, но я так же очень разочаровался в этом фильме.
Это их решение повлечет за собой самые удивительные последствия...

Вот это вообще наверно о другом фильме.



    Дорогой пользователь! Огромная просьба, поблагодарите релизера, оцените раздачу и оставьте свои комментарий, если Вы скачали Короче через торрент бесплатно!!
    Комментировать посты могут только пользователи прошедшие не сложную регистрацию
    Показать сообщения:    


    Короче через торрент
    Скачать бесплатно Короче
    Короче скачать торрент
    Короче смотреть онлайн
    Cкачать фильм Короче бесплатно
    Короче скачать торрент в хорошем качестве
    Короче смотреть онлайн бесплатно в хорошем качестве
    Вы не можете начинать темы
    Вы не можете отвечать на сообщения
    Вы не можете редактировать свои сообщения
    Вы не можете удалять свои сообщения
    Вы не можете голосовать в опросах
    Вы не можете прикреплять файлы к сообщениям
    Вы можете скачивать файлы
    Короче / Downsizing [2017, фантастика, драма, комедия, UHD Blu-Ray Remux 2160p] [Дубляж] [Лицензия] смотреть онлайн, скачать торрент picoco.icu