Достать ножи: Стеклянная луковица

MVO

Добыча

Дубляж

Уэнсдэй

1 сезон

Тор

Дубляж

13 клиническая

1 сезон

Жестокая ночь

MVO

Одни из нас

1 сезон

Deluxe

pack

Рекомендуем

30

Пиратка

ВАЖНО

ВАЖНО

Ghostwire

Пиратка

jed

RePack

nioh2

RePack

RDR2

RePack

NEED FOR SPEED™ PAYBACK

RePack

скачать торрент

Кинопоиск HD

Острые козырьки 6 сезон

6 сезон

FAR CRY 6

RePack

скачать торрент

Лицензия

скачать торрент

MVO

1

1 сезон

скачать торрент

1 сезон

скачать торрент

Лицензия

  

Идеальный голос / Pitch Perfect (Джейсон Мур) [2012, Мелодрама, комедия, музыка, UHD BDRemux 2160p] 2xVO+Дубляж [Лицензия]

Идеальный голос через торрент 5050.piratbit.fun

Размер: 52.33 GB | Добавлен: 4 года 10 мес. назад | Торрент скачан:12 раз
Смотреть онлайн | Скачать | Поддержите нас   

24-03-2018 09:10 Идеальный голос Скачать торрент  

Идеальный голос / Pitch PerfectГод выпуска: 2012
Страна: США
Жанр: Мелодрама, комедия, музыка
Продолжительность: 01:52:07
Перевод:

Дублированный | Лицензия
Профессиональный одноголосый | Александр Дасевич
Любительский одноголосый | Вячеслав Замез

Субтитры:

Субтитры 1: | RUS | (Forced)
Субтитры 2: | RUS | (Full, Groby)
Субтитры 3: | ENG | (Full)
Субтитры 4: | ENG | (SDH)
Субтитры 5: | ENG | ( Commentaries J. Moore, E. Banks, M. Handelman )
Субтитры 6: | ENG | ( Commentaries of Paul Brooks )

Режиссер: Джейсон Мур

rating

В ролях:

Анна Кендрик, Скайлар Эстин, Ребел Уилсон, Адам Дивайн, Бриттани Сноу, Элизабет Бэнкс, Джон Майкл Хиггинс, Анна Кэмп, Фредди Строма, Бен Платт, Алексис Нэп, Эстер Дин, Хана Мэй Ли, Ванета Уолмсли, Келли Джакл

Описание:

История о студентке, внезапно обнаружившей в себе страсть к пению "а капелла" (без музыкального сопровождения). Фильм — адаптация книги американского писателя Микки Рэпкина.

Качество: UHD BDRemux 2160p
Формат: MKV

Видео: HEVC, HDR, 57.7 Mбит/с, 3840x2160
Аудио#1: | RUS | DTS, 48.0 kHz, 6 ch, 768 kb/s, CBR | Дублированный |
Аудио#2: | RUS | DTS, 48.0 kHz, 6 ch, 1 509 kb/s, CBR | VO Александр Дасевич (перевод Groby) |
Аудио#3: | RUS | AC-3, 48.0 kHz, 6 ch, 448 kb/s, CBR | VO Вячеслав Замез (перевод Groby) |
Аудио#4: | ENG | DTS X 48.0 kHz, 8 ch, 6090 kb/s VBR | Original |
Аудио#5: | ENG | AC-3, 48.0 kHz, 2 ch, 192 kb/s, CBR | Commentaries J. Moore, E. Banks, M. Handelman |
Аудио#6: | ENG | AC-3, 48.0 kHz, 2 ch, 192 kb/s, CBR | Commentaries of Paul Brooks |
скриншот  скриншот  скриншот  скриншот  скриншот  скриншот  

Общее
Уникальный идентификатор : 168300016158006309914976043899548567943 (0x7E9D677185981D6063548C07ADEF8987)
Полное имя : Pitch.Perfect.2012.2160p.BDREMUX.HEVC.HDR.IVA(3xRUS.ENG).ExKinoRay.mkv
Формат : Matroska
Версия формата : Version 4 / Version 2
Размер файла : 52,3 Гбайт
Продолжительность : 1 ч. 52 м.
Общий поток : 66,8 Мбит/сек
Название фильма : Идеальный голос / Pitch Perfect ( 2012 ) | 4K | HDR | IVA(3xRUS.ENG) | ExKinoRay
Дата кодирования : UTC 2018-03-23 12:51:20
Программа кодирования : mkvmerge v21.0.0 ('Tardigrades Will Inherit The Earth') 64-bit
Библиотека кодирования : libebml v1.3.5 + libmatroska v1.4.8
Обложка : Yes

Видео
Идентификатор : 1
Формат : HEVC
Формат/Информация : High Efficiency Video Coding
Профиль формата : Main [email protected]@High
Идентификатор кодека : V_MPEGH/ISO/HEVC
Продолжительность : 1 ч. 52 м.
Битрейт : 57,7 Мбит/сек
Ширина : 3840 пикселей
Высота : 2160 пикселей
Соотношение сторон : 16:9
Режим частоты кадров : Постоянный
Частота кадров : 23,976 (24000/1001) кадра/сек
Цветовое пространство : YUV
Субдискретизация насыщенности : 4:2:0 (Type 2)
Битовая глубина : 10 бит
Бит/(Пиксели*Кадры) : 0.290
Размер потока : 45,1 Гбайт (86%)
Заголовок : Pitch.Perfect.2012.2160p.BluRay.REMUX.HEVC
Библиотека кодирования : ATEME Titan File 3.8.13 (4.8.13.0)
Язык : English
Default : Да
Forced : Нет
Цветовой диапазон : Limited
Основные цвета : BT.2020
Характеристики трансфера : PQ
Коэффициенты матрицы : BT.2020 non-constant
MasteringDisplay_ColorPrimaries : Display P3
MasteringDisplay_Luminance : min: 0.0050 cd/m2, max: 1000 cd/m2
MaxCLL : 958 cd/m2
MaxFALL : 253 cd/m2

Аудио #1
Идентификатор : 2
Формат : DTS
Формат/Информация : Digital Theater Systems
Идентификатор кодека : A_DTS
Продолжительность : 1 ч. 52 м.
Вид битрейта : Постоянный
Битрейт : 768 Кбит/сек
Каналы : 6 каналов
Расположение каналов : Front: L C R, Side: L R, LFE
Частота : 48,0 КГц
Частота кадров : 93,750 кадра/сек (512 SPF)
Битовая глубина : 24 бит
Метод сжатия : С потерями
Размер потока : 615 Мбайт (1%)
Заголовок : | Дублированный |
Язык : Russian
Default : Да
Forced : Нет

Аудио #2
Идентификатор : 3
Формат : DTS
Формат/Информация : Digital Theater Systems
Идентификатор кодека : A_DTS
Продолжительность : 1 ч. 52 м.
Вид битрейта : Постоянный
Битрейт : 1509 Кбит/сек
Каналы : 6 каналов
Расположение каналов : Front: L C R, Side: L R, LFE
Частота : 48,0 КГц
Частота кадров : 93,750 кадра/сек (512 SPF)
Битовая глубина : 24 бит
Метод сжатия : С потерями
Размер потока : 1,18 Гбайт (2%)
Заголовок : | VO А. Дасевич |
Язык : Russian
Default : Нет
Forced : Нет

Аудио #3
Идентификатор : 4
Формат : AC-3
Формат/Информация : Audio Coding 3
Идентификатор кодека : A_AC3
Продолжительность : 1 ч. 52 м.
Вид битрейта : Постоянный
Битрейт : 448 Кбит/сек
Каналы : 6 каналов
Расположение каналов : Front: L C R, Side: L R, LFE
Частота : 48,0 КГц
Частота кадров : 31,250 кадров/сек (1536 SPF)
Битовая глубина : 16 бит
Метод сжатия : С потерями
Размер потока : 359 Мбайт (1%)
Заголовок : | VO В. Замез |
Язык : Russian
ServiceKind : Complete Main
Default : Нет
Forced : Нет

Аудио #4
Идентификатор : 5
Формат : DTS
Формат/Информация : Digital Theater Systems
Профиль формата : X / MA / Core
Идентификатор кодека : A_DTS
Продолжительность : 1 ч. 52 м.
Вид битрейта : Переменный / Переменный / Постоянный
Битрейт : 6090 Кбит/сек / 6090 Кбит/сек / 1509 Кбит/сек
Каналы : Object Based / 8 каналов / 6 каналов
Расположение каналов : Object Based / Front: L C R, Side: L R, Back: L R, LFE / Front: L C R, Side: L R, LFE
Частота : / 48,0 КГц / 48,0 КГц
Частота кадров : 93,750 кадра/сек (512 SPF)
Битовая глубина : / 24 бит / 24 бит
Метод сжатия : / Lossless / Lossy
Размер потока : 4,77 Гбайт (9%)
Заголовок : | Original |
Язык : English
Default : Нет
Forced : Нет

Аудио #5
Идентификатор : 6
Формат : AC-3
Формат/Информация : Audio Coding 3
Идентификатор кодека : A_AC3
Продолжительность : 1 ч. 52 м.
Вид битрейта : Постоянный
Битрейт : 192 Кбит/сек
Каналы : 2 канала
Расположение каналов : Front: L R
Частота : 48,0 КГц
Частота кадров : 31,250 кадров/сек (1536 SPF)
Битовая глубина : 16 бит
Метод сжатия : С потерями
Размер потока : 154 Мбайт (0%)
Заголовок : | Comm. J. Moore, E. Banks, M. Handelman |
Язык : English
ServiceKind : Complete Main
Default : Нет
Forced : Нет

Аудио #6
Идентификатор : 7
Формат : AC-3
Формат/Информация : Audio Coding 3
Идентификатор кодека : A_AC3
Продолжительность : 1 ч. 52 м.
Вид битрейта : Постоянный
Битрейт : 192 Кбит/сек
Каналы : 2 канала
Расположение каналов : Front: L R
Частота : 48,0 КГц
Частота кадров : 31,250 кадров/сек (1536 SPF)
Битовая глубина : 16 бит
Метод сжатия : С потерями
Размер потока : 154 Мбайт (0%)
Заголовок : | Commentaries of Paul Brooks |
Язык : English
ServiceKind : Complete Main
Default : Нет
Forced : Нет

Текст #1
Идентификатор : 8
Формат : UTF-8
Идентификатор кодека : S_TEXT/UTF8
Идентификатор кодека/Информация : UTF-8 Plain Text
Продолжительность : 1 ч. 1 м.
Битрейт : 0 бит/сек
ElementCount : 10
Размер потока : 356 байт (0%)
Заголовок : Forced
Язык : Russian
Default : Да
Forced : Да

Текст #2
Идентификатор : 9
Формат : UTF-8
Идентификатор кодека : S_TEXT/UTF8
Идентификатор кодека/Информация : UTF-8 Plain Text
Продолжительность : 1 ч. 45 м.
Битрейт : 99 бит/сек
ElementCount : 1340
Размер потока : 77,4 Кбайт (0%)
Заголовок : Full (Groby)
Язык : Russian
Default : Нет
Forced : Нет

Текст #3
Идентификатор : 10
Формат : UTF-8
Идентификатор кодека : S_TEXT/UTF8
Идентификатор кодека/Информация : UTF-8 Plain Text
Продолжительность : 1 ч. 45 м.
Битрейт : 64 бит/сек
ElementCount : 1360
Размер потока : 50,1 Кбайт (0%)
Заголовок : Full
Язык : English
Default : Нет
Forced : Нет

Текст #4
Идентификатор : 11
Формат : UTF-8
Идентификатор кодека : S_TEXT/UTF8
Идентификатор кодека/Информация : UTF-8 Plain Text
Продолжительность : 1 ч. 46 м.
Битрейт : 70 бит/сек
ElementCount : 1555
Размер потока : 54,8 Кбайт (0%)
Заголовок : SDH
Язык : English
Default : Нет
Forced : Нет

Текст #5
Идентификатор : 12
Формат : UTF-8
Идентификатор кодека : S_TEXT/UTF8
Идентификатор кодека/Информация : UTF-8 Plain Text
Продолжительность : 1 ч. 46 м.
Битрейт : 145 бит/сек
ElementCount : 2082
Размер потока : 113 Кбайт (0%)
Заголовок : | Comm. J. Moore, E. Banks, M. Handelman |
Язык : English
Default : Нет
Forced : Нет

Текст #6
Идентификатор : 13
Формат : UTF-8
Идентификатор кодека : S_TEXT/UTF8
Идентификатор кодека/Информация : UTF-8 Plain Text
Продолжительность : 1 ч. 46 м.
Битрейт : 95 бит/сек
ElementCount : 1436
Размер потока : 74,0 Кбайт (0%)
Заголовок : | Commentaries of Paul Brooks |
Язык : English
Default : Нет
Forced : Нет

Меню
00:00:00.000 : en:Chapter 1
00:04:33.564 : en:Chapter 2
00:09:18.933 : en:Chapter 3
00:15:51.909 : en:Chapter 4
00:19:46.643 : en:Chapter 5
00:23:09.471 : en:Chapter 6
00:27:48.333 : en:Chapter 7
00:32:46.756 : en:Chapter 8
00:39:00.212 : en:Chapter 9
00:43:54.882 : en:Chapter 10
00:49:58.412 : en:Chapter 11
00:54:21.466 : en:Chapter 12
01:01:49.580 : en:Chapter 13
01:06:27.441 : en:Chapter 14
01:11:57.271 : en:Chapter 15
01:18:57.899 : en:Chapter 16
01:23:24.165 : en:Chapter 17
01:33:43.117 : en:Chapter 18
01:38:50.591 : en:Chapter 19
01:44:47.239 : en:Chapter 20




Скачать Идеальный голос через торрент https://c.radikal.ru/c04/1803/34/a0e6f2815ab6.jpg Скачать, смотреть онлайн Идеальный голос бесплантно в хорошем качестве Описание: История о студентке, внезапно обнаружившей в себе страсть к пению "а капелла" (без музыкального сопровождения). Фильм — адаптация ... 7.8 10 4
Торрент: Зарегистрирован [2018-03-24 09:10] · скачан: 12 раз
Статус: √ проверено
Размер: 52.33 GB
Как cкачать? Как скачать Идеальный голос через торрент | UTorrent

% Раздел Тема Автор DL S | L
Ultra HD (UHD: 2K, 4K, 8K) [ 56.82 GB ] Идеальный голос / Pitch Perfect | Лицензия | 2160p sheker187 Скачать
1 | 0
Сборники на DVD и Сиквелы [DVDrip, WEB-DLRip, HDrip, BDRip] [ 5.82 GB ] Идеальный голос: Дилогия / Pitch Perfect: Dilogy | Лицензия | BDRip-AVC от potroks potroks Скачать
1 | 0
Фильмы [HD 720p, 1080p] (Хороший звук DUB, MVO) [ 15.06 GB ] Идеальный голос / Pitch Perfect | DUB | 1080p msltel Скачать
1 | 0
Фильмы [HD 720p, 1080p] (Хороший звук DUB, MVO) [ 5.27 GB ] Идеальный голос / Pitch Perfect | DUB | 720p msltel Скачать
1 | 0
Фильмы 2012 [ 3.52 GB ] Идеальный голос / Pitch Perfect | DUB | BDRip-AVC msltel Скачать
1 | 0
Фильмы 2012 [ 2.18 GB ] Идеальный голос / Pitch Perfect | | HDRip diletant Скачать
1 | 0
Фильмы [HD 720p, 1080p] (Хороший звук DUB, MVO) [ 9.26 GB ] Идеальный голос / Pitch Perfect | Дубляж | 720p, Дубляж, лицензия [email protected] Скачать
1 | 0

28-11-2019 20:33  


Отключить вcю реклaмy на сайте, в т.ч. и в плеере онлайн просмотра!

29-03-2018 18:02 Идеальный голос Скачать торрент  

бть, как же я обожаю этот фильм



    Дорогой пользователь! Огромная просьба, поблагодарите релизера, оцените раздачу и оставьте свои комментарий, если Вы скачали Идеальный голос через торрент бесплатно!!
    Комментировать посты могут только пользователи прошедшие не сложную регистрацию
    Показать сообщения:    


    Идеальный голос через торрент
    Скачать бесплатно Идеальный голос
    Идеальный голос скачать торрент
    Идеальный голос смотреть онлайн
    Cкачать фильм Идеальный голос бесплатно
    Идеальный голос скачать торрент в хорошем качестве
    Идеальный голос смотреть онлайн бесплатно в хорошем качестве
    Вы не можете начинать темы
    Вы не можете отвечать на сообщения
    Вы не можете редактировать свои сообщения
    Вы не можете удалять свои сообщения
    Вы не можете голосовать в опросах
    Вы не можете прикреплять файлы к сообщениям
    Вы можете скачивать файлы
    Идеальный голос / Pitch Perfect [2012, Мелодрама, комедия, музыка, UHD BDRemux 2160p] 2xVO+Дубляж [Лицензия] смотреть онлайн, скачать торрент picoco.icu