Достать ножи: Стеклянная луковица

MVO

Добыча

Дубляж

Уэнсдэй

1 сезон

Тор

Дубляж

13 клиническая

1 сезон

Жестокая ночь

MVO

Одни из нас

1 сезон

Deluxe

pack

Рекомендуем

30

Пиратка

ВАЖНО

ВАЖНО

Ghostwire

Пиратка

jed

RePack

nioh2

RePack

RDR2

RePack

NEED FOR SPEED™ PAYBACK

RePack

скачать торрент

Кинопоиск HD

Острые козырьки 6 сезон

6 сезон

FAR CRY 6

RePack

скачать торрент

Лицензия

скачать торрент

MVO

1

1 сезон

скачать торрент

1 сезон

скачать торрент

Лицензия

  

Иллюзия обмана / Now You See Me (Луи Летерье) [2013, триллер, криминал, детектив, UHD BDRemux 2160p] Дубляж - [Лицензия]

Иллюзия обмана через торрент 5050.piratbit.fun

Размер: 57.65 GB | Добавлен: 4 года 10 мес. назад | Торрент скачан:32 раза
Смотреть онлайн | Скачать | Поддержите нас   

25-03-2018 04:09 Иллюзия обмана Скачать торрент  

Иллюзия обмана / Now You See Me«Чем вы ближе, тем меньше вы видите»
Год выпуска: 2013
Страна: США, Франция
Жанр: триллер, криминал, детектив
Продолжительность: 01:55:21
Перевод: Дублированный - [Лицензия]
Субтитры: Английские, испанские
Режиссер: Луи Летерье
В ролях:

Мелани Лоран (Alma Dray), Морган Фриман (Thaddeus Bradley), Майкл Кейн (Arthur Tressler), Джесси Айзенберг (J. Daniel Atlas), Марк Руффало (Dylan Rhodes), Вуди Харрельсон (Merritt McKinney), Айла Фишер (Henley Reeves), Дэйв Франко (Jack Wilder), Майкл Келли (Agent Fuller), Коммон (Evans), Дэвид Уоршофски (Cowan), Хосе Гарсия (Etienne Forcier)
Описание:
Команда лучших иллюзионистов мира проворачивает дерзкие ограбления прямо во время своих шоу, играя в кошки-мышки с агентами ФБР.
Рейтинг:

MPAA: PG-13 - Детям до 13 лет просмотр не желателен
Качество: UHD BDRemux 2160p
Формат: MKV
Видео: HEVC, 59.0 Мбит/с, 3840x2160, 23.976 Кадр/с
Аудио: Russian:48 kHz,(DTS-HD MA, 6 ch, 2193 Кбит/с) Дубляж
Аудио: English:48 kHz,(TrueHD+Atmos, 8 ch, 8853 Кбит/с) Original
Аудио: English:48 kHz,(DTS-HD MA, 6 ch, 3840 Кбит/с) Original
Аудио: English:48 kHz,(AC3, 6 ch, 640 Кбит/с) Original
Аудио: Spanish:48 kHz,(AC3, 6 ch, 640 Кбит/с) Дубляж
Навигация по главам: есть
Complete name : G:\Now.You.See.Me.2013.2160p.BluRay.REMUX.HEVC.DTS-HD.MA.TrueHD.7.1.Atmos-SpaceHD13.mkv
Format : Matroska
Format version : Version 4 / Version 2
File size : 57.6 GiB
Duration : 1 h 55 min
Overall bit rate mode : Variable
Overall bit rate : 71.5 Mb/s
Movie name : Now.You.See.Me.2013.2160p.BluRay.REMUX.HEVC.DTS-HD.MA.TrueHD.7.1.Atmos-SpaceHD13
Encoded date : UTC 2018-03-21 20:55:58
Writing application : mkvmerge v20.0.0 ('I Am The Sun') 64-bit
Writing library : libebml v1.3.5 + libmatroska v1.4.8
Cover : Yes
Attachments : cover.jpg.jpg

Video
ID : 1
Format : HEVC
Format/Info : High Efficiency Video Coding
Format profile : Main [email protected]@High
Codec ID : V_MPEGH/ISO/HEVC
Duration : 1 h 55 min
Bit rate : 59.0 Mb/s
Width : 3 840 pixels
Height : 2 160 pixels
Display aspect ratio : 16:9
Frame rate mode : Constant
Frame rate : 23.976 (24000/1001) FPS
Color space : YUV
Chroma subsampling : 4:2:0 (Type 2)
Bit depth : 10 bits
Bits/(Pixel*Frame) : 0.297
Stream size : 47.5 GiB (82%)
Title : Now.You.See.Me.2013.2160p.BluRay.REMUX.HEVC.DTS-HD.MA.TrueHD.7.1.Atmos-SpaceHD13
Writing library : ATEME Titan KFE 3.7.3 (4.7.3.1003)
Language : Russian
Default : Yes
Forced : No
Color range : Limited
Color primaries : BT.2020
Transfer characteristics : PQ
Matrix coefficients : BT.2020 non-constant
Mastering display color primaries : Display P3
Mastering display luminance : min: 0.0050 cd/m2, max: 4000 cd/m2

Audio #1
ID : 2
Format : DTS
Format/Info : Digital Theater Systems
Format profile : MA / Core
Codec ID : A_DTS
Duration : 1 h 55 min
Bit rate mode : Variable / Constant
Bit rate : 2 193 kb/s / 1 509 kb/s
Channel(s) : 6 channels
Channel positions : Front: L C R, Side: L R, LFE
Sampling rate : 48.0 kHz
Frame rate : 93.750 FPS (512 SPF)
Bit depth : 16 bits
Compression mode : Lossless / Lossy
Stream size : 1.77 GiB (3%)
Title : Now.You.See.Me.2013.2160p.BluRay.REMUX.HEVC.DTS-HD.MA.TrueHD.7.1.Atmos-SpaceHD13.Дубляж
Language : Russian
Default : Yes
Forced : No

Audio #2
ID : 3
Format : TrueHD
Format profile : TrueHD+Atmos / TrueHD
Codec ID : A_TRUEHD
Duration : 1 h 55 min
Bit rate mode : Variable
Bit rate : 5 052 kb/s
Maximum bit rate : 8 853 kb/s
Channel(s) : Object Based / 8 channels
Channel positions : Object Based / Front: L C R, Side: L R, Back: L R, LFE
Sampling rate : / 48.0 kHz
Frame rate : 1 200.000 FPS (40 SPF)
Compression mode : Lossless
Delay relative to video : 32 ms
Stream size : 4.07 GiB (7%)
Title : Now.You.See.Me.2013.2160p.BluRay.REMUX.HEVC.DTS-HD.MA.TrueHD.7.1.Atmos-SpaceHD13
Language : English
Default : No
Forced : No

Audio #3
ID : 4
Format : DTS
Format/Info : Digital Theater Systems
Format profile : MA / Core
Codec ID : A_DTS
Duration : 1 h 55 min
Bit rate mode : Variable / Constant
Bit rate : 3 840 kb/s / 1 509 kb/s
Channel(s) : 8 channels / 6 channels
Channel positions : Front: L C R, Side: L R, Back: L R, LFE / Front: L C R, Side: L R, LFE
Sampling rate : 48.0 kHz
Frame rate : 93.750 FPS (512 SPF)
Bit depth : 24 bits
Compression mode : Lossless / Lossy
Stream size : 3.15 GiB (5%)
Title : Now.You.See.Me.2013.2160p.BluRay.REMUX.HEVC.DTS-HD.MA.TrueHD.7.1.Atmos-SpaceHD13
Language : English
Default : No
Forced : No

Audio #4
ID : 5
Format : AC-3
Format/Info : Audio Coding 3
Codec ID : A_AC3
Duration : 1 h 55 min
Bit rate mode : Constant
Bit rate : 640 kb/s
Channel(s) : 6 channels
Channel positions : Front: L C R, Side: L R, LFE
Sampling rate : 48.0 kHz
Frame rate : 31.250 FPS (1536 SPF)
Bit depth : 16 bits
Compression mode : Lossy
Delay relative to video : 31 ms
Stream size : 528 MiB (1%)
Title : Now.You.See.Me.2013.2160p.BluRay.REMUX.HEVC.DTS-HD.MA.TrueHD.7.1.Atmos-SpaceHD13
Language : English
Service kind : Complete Main
Default : No
Forced : No

Audio #5
ID : 6
Format : AC-3
Format/Info : Audio Coding 3
Codec ID : A_AC3
Duration : 1 h 55 min
Bit rate mode : Constant
Bit rate : 640 kb/s
Channel(s) : 6 channels
Channel positions : Front: L C R, Side: L R, LFE
Sampling rate : 48.0 kHz
Frame rate : 31.250 FPS (1536 SPF)
Bit depth : 16 bits
Compression mode : Lossy
Stream size : 528 MiB (1%)
Title : Now.You.See.Me.2013.2160p.BluRay.REMUX.HEVC.DTS-HD.MA.TrueHD.7.1.Atmos-SpaceHD13
Language : Spanish
Service kind : Complete Main
Default : No
Forced : No

Text #1
ID : 7
Format : PGS
Muxing mode : zlib
Codec ID : S_HDMV/PGS
Codec ID/Info : Picture based subtitle format used on BDs/HD-DVDs
Duration : 1 h 45 min
Bit rate : 47.9 kb/s
Count of elements : 3874
Stream size : 36.0 MiB (0%)
Title : English-PGS
Language : English
Default : Yes
Forced : No

Text #2
ID : 8
Format : PGS
Muxing mode : zlib
Codec ID : S_HDMV/PGS
Codec ID/Info : Picture based subtitle format used on BDs/HD-DVDs
Duration : 1 h 50 min
Bit rate : 49.7 kb/s
Count of elements : 3810
Stream size : 39.3 MiB (0%)
Title : English-SDH-PGS
Language : English
Default : No
Forced : No

Text #3
ID : 9
Format : PGS
Muxing mode : zlib
Codec ID : S_HDMV/PGS
Codec ID/Info : Picture based subtitle format used on BDs/HD-DVDs
Duration : 1 h 45 min
Bit rate : 44.2 kb/s
Count of elements : 3594
Stream size : 33.3 MiB (0%)
Title : Spanish-PGS
Language : Spanish
Default : No
Forced : No

Menu
00:00:00.000 : en:Chapter 1
00:07:41.002 : en:Chapter 2
00:13:33.479 : en:Chapter 3
00:20:16.673 : en:Chapter 4
00:30:12.352 : en:Chapter 5
00:37:34.377 : en:Chapter 6
00:44:44.932 : en:Chapter 7
00:51:15.113 : en:Chapter 8
00:58:56.115 : en:Chapter 9
01:05:06.360 : en:Chapter 10
01:13:21.146 : en:Chapter 11
01:20:43.338 : en:Chapter 12
01:27:05.261 : en:Chapter 13
01:35:45.656 : en:Chapter 14
01:40:59.386 : en:Chapter 15
01:45:46.715 : en:Chapter 16



Скачать Иллюзия обмана через торрент http://i99.fastpic.ru/big/2018/0325/d4/504cf8a92f96328852c3c7e41f15c7d4.png Скачать, смотреть онлайн Иллюзия обмана бесплантно в хорошем качестве Описание: Команда лучших иллюзионистов мира проворачивает дерзкие ограбления прямо во время своих шоу, играя в кошки-мышки с агентами ФБР.✦ ... 10 10 4
Info! Золотая раздача, скачанное не засчитывается.
Торрент: Зарегистрирован [2018-03-25 04:09] · скачан: 32 раз
Статус: √ проверено
Размер: 57.65 GB
Как cкачать? Как скачать Иллюзия обмана через торрент | UTorrent

% Раздел Тема Автор DL S | L
Фильмы (HD 720p, 1080p) (48-60 fps) [ 4.47 GB ] Иллюзия обмана / Now You See Me | Дубляж + AVO | 720p / 60 FPS + AVO slaventi-69 Скачать
2 | 0
Фильмы [HD 720p, 1080p] (Хороший звук DUB, MVO) [ 8.98 GB ] Иллюзия обмана / Now You See Me | Дубляж | 1080p, HEVC, Дубляж Мичман37 Скачать
1 | 0
R.G. Resident & PiratVoice - Фильмы, Видео [ 1.34 GB ] Дилогия : Иллюзия обмана / Dilogy: Now You See Me | Лицензия | HDRip, Дубляж - [Лицензия MeMoRiSe Скачать
1 | 0
Фильмы 2013 [DVDrip, WEB-DLRip, HDrip] [ 2.18 GB ] Иллюзия обмана / Now You See Me | Дубляж | BDRip, Дубляж [лицензия Ворон Скачать
1 | 0
Фильмы с авторской озвучкой [ 2.18 GB ] Иллюзия обмана / Now You See Me | AVO | BDRip killermax2013 Скачать
1 | 0
Фильмы 2013 [DVDrip, WEB-DLRip, HDrip] [ 2.05 GB ] Иллюзия обмана / Now You See Me | iTunes | HDRip Ворон Скачать
1 | 0
Фильмы с авторской озвучкой [ 2.11 GB ] Иллюзия обмана / Now You See Me | AVO | BDRip killermax2013 Скачать
1 | 0

28-11-2019 20:33  


Отключить вcю реклaмy на сайте, в т.ч. и в плеере онлайн просмотра!

    Дорогой пользователь! Огромная просьба, поблагодарите релизера, оцените раздачу и оставьте свои комментарий, если Вы скачали Иллюзия обмана через торрент бесплатно!!
    Комментировать посты могут только пользователи прошедшие не сложную регистрацию
    Показать сообщения:    


    Иллюзия обмана через торрент
    Скачать бесплатно Иллюзия обмана
    Иллюзия обмана скачать торрент
    Иллюзия обмана смотреть онлайн
    Cкачать фильм Иллюзия обмана бесплатно
    Иллюзия обмана скачать торрент в хорошем качестве
    Иллюзия обмана смотреть онлайн бесплатно в хорошем качестве
    Вы не можете начинать темы
    Вы не можете отвечать на сообщения
    Вы не можете редактировать свои сообщения
    Вы не можете удалять свои сообщения
    Вы не можете голосовать в опросах
    Вы не можете прикреплять файлы к сообщениям
    Вы можете скачивать файлы
    Иллюзия обмана / Now You See Me [2013, триллер, криминал, детектив, UHD BDRemux 2160p] Дубляж - [Лицензия] смотреть онлайн, скачать торрент picoco.icu