Достать ножи: Стеклянная луковица

MVO

Добыча

Дубляж

Уэнсдэй

1 сезон

Тор

Дубляж

13 клиническая

1 сезон

Жестокая ночь

MVO

Одни из нас

1 сезон

Deluxe

pack

Рекомендуем

30

Пиратка

ВАЖНО

ВАЖНО

Ghostwire

Пиратка

jed

RePack

nioh2

RePack

RDR2

RePack

NEED FOR SPEED™ PAYBACK

RePack

скачать торрент

Кинопоиск HD

Острые козырьки 6 сезон

6 сезон

FAR CRY 6

RePack

скачать торрент

Лицензия

скачать торрент

MVO

1

1 сезон

скачать торрент

1 сезон

скачать торрент

Лицензия

  

Мамма MIA! / Mamma Mia! (Филлида Ллойд) [2008, мюзикл, мелодрама, комедия, UHD BDRemux 2160p] Дубляж - [Лицензия]

Мамма MIA! через торрент 5050.piratbit.fun

Размер: 49.98 GB | Добавлен: 4 года 10 мес. назад | Торрент скачан:11 раз
Смотреть онлайн | Скачать | Поддержите нас   

30-03-2018 07:03 Мамма MIA! Скачать торрент  

Мамма MIA! / Mamma Mia!

Год выпуска: 2008
Страна: США, Великобритания, Германия
Жанр: мюзикл, мелодрама, комедия, семейный
Продолжительность: 01:48:38
Перевод: Дублированный - [Лицензия]
Субтитры: Russian (Форс/песни), English (Full, commentary)
Режиссер: Филлида Ллойд
В ролях:

Аманда Сайфред (Sophie), Мэрил Стрип (Donna), Пирс Броснан (Sam), Стеллан Скарсгард (Bill), Колин Фёрт (Harry), Джули Уолтерс (Rosie), Кристин Барански (Tanya), Рэйчел МакДауэлл (Lisa), Эшли Лиллей (Ali), Доминик Купер (Sky), Филип Майкл (Pepper), Нэнси Болдуин (Sam's PA)
Описание:
Молодая девушка Софи собирается выйти замуж и мечтает о том, чтобы церемония прошла по всем правилам. Она хочет пригласить на свадьбу своего отца, чтобы он отвел ее к алтарю. Но она не знает, кто он, так как ее мать Донна никогда не рассказывала о нем.
Рейтинг:

MPAA: PG-13 - Детям до 13 лет просмотр не желателен
Качество: UHD BDRemux 2160p
Формат: MKV
Видео: HEVC, 57417 Кбит/с, 3840x2160
Аудио #1: | RUS | DTS, 48.0 kHz, 6 ch, 768 kb/s, CBR | Дублированный |
Аудио #2: | ENG | DTS:X MA, 48.0 kHz 8 ch, 7 864 kb/s VBR | Original |
Аудио #3: | ENG | AC-3, 48.0 kHz, 2 ch, 192 kb/s, CBR | Commentary |
Навигация по главам: есть
Общее
Уникальный идентификатор : 214450709523476933431542053457726091612 (0xA155B44D708D0E30674A9C573785315C)
Полное имя : Mamma.Mia.2008.2160p.BDRemux.HEVC.HDR.IVA(RUS.ENG).ExKinoRay.mkv
Формат : Matroska
Версия формата : Version 4 / Version 2
Размер файла : 50,0 Гбайт
Продолжительность : 1 ч. 48 м.
Общий поток : 65,9 Мбит/сек
Название фильма : Мамма MIA! / Mamma Mia! (2008) | 4K | HDR | IVA(RUS.ENG) | ExKinoRay
Дата кодирования : UTC 2018-03-29 17:07:41
Программа кодирования : mkvmerge v21.0.0 ('Tardigrades Will Inherit The Earth') 64-bit
Библиотека кодирования : libebml v1.3.5 + libmatroska v1.4.8
Обложка : Yes
Attachments : cover

Видео
Идентификатор : 1
Формат : HEVC
Формат/Информация : High Efficiency Video Coding
Коммерческое название : HDR10
Профиль формата : Main [email protected]@High
Идентификатор кодека : V_MPEGH/ISO/HEVC
Продолжительность : 1 ч. 48 м.
Битрейт : 57,4 Мбит/сек
Ширина : 3840 пикселей
Высота : 2160 пикселей
Соотношение сторон : 16:9
Режим частоты кадров : Постоянный
Частота кадров : 23,976 (24000/1001) кадра/сек
Цветовое пространство : YUV
Субдискретизация насыщенности : 4:2:0 (Type 2)
Битовая глубина : 10 бит
Бит/(Пиксели*Кадры) : 0.289
Размер потока : 43,6 Гбайт (87%)
Заголовок : Mamma.Mia.2008.2160p.BDRemux.HEVC.HDR
Библиотека кодирования : ATEME Titan File 3.8.13 (4.8.13.0)
Язык : English
Default : Да
Forced : Нет
Цветовой диапазон : Limited
Основные цвета : BT.2020
Характеристики трансфера : PQ
Коэффициенты матрицы : BT.2020 non-constant
MasteringDisplay_ColorPrimaries : BT.709
MasteringDisplay_Luminance : min: 0.0050 cd/m2, max: 1000 cd/m2
MaxCLL : 1000 cd/m2
MaxFALL : 295 cd/m2

Аудио #1
Идентификатор : 2
Формат : DTS
Формат/Информация : Digital Theater Systems
Идентификатор кодека : A_DTS
Продолжительность : 1 ч. 48 м.
Вид битрейта : Постоянный
Битрейт : 768 Кбит/сек
Каналы : 6 каналов
Расположение каналов : Front: L C R, Side: L R, LFE
Частота : 48,0 КГц
Частота кадров : 93,750 кадра/сек (512 SPF)
Битовая глубина : 24 бит
Метод сжатия : С потерями
Размер потока : 597 Мбайт (1%)
Заголовок : | Дублированный |
Язык : Russian
Default : Да
Forced : Нет

Аудио #2
Идентификатор : 3
Формат : DTS
Формат/Информация : Digital Theater Systems
Профиль формата : X / MA / Core
Идентификатор кодека : A_DTS
Продолжительность : 1 ч. 48 м.
Вид битрейта : Переменный / Переменный / Постоянный
Битрейт : 7356 Кбит/сек / 7356 Кбит/сек / 1509 Кбит/сек
Каналы : Object Based / 8 каналов / 6 каналов
Расположение каналов : Object Based / Front: L C R, Side: L R, Back: L R, LFE / Front: L C R, Side: L R, LFE
Частота : / 48,0 КГц / 48,0 КГц
Частота кадров : 93,750 кадра/сек (512 SPF)
Битовая глубина : / 24 бит / 24 бит
Метод сжатия : / Lossless / Lossy
Размер потока : 5,58 Гбайт (11%)
Заголовок : | Original |
Язык : English
Default : Нет
Forced : Нет

Аудио #3
Идентификатор : 4
Формат : AC-3
Формат/Информация : Audio Coding 3
Идентификатор кодека : A_AC3
Продолжительность : 1 ч. 48 м.
Вид битрейта : Постоянный
Битрейт : 192 Кбит/сек
Каналы : 2 канала
Расположение каналов : Front: L R
Частота : 48,0 КГц
Частота кадров : 31,250 кадров/сек (1536 SPF)
Битовая глубина : 16 бит
Метод сжатия : С потерями
Размер потока : 149 Мбайт (0%)
Заголовок : | Commentary |
Язык : English
ServiceKind : Complete Main
Default : Нет
Forced : Нет

Текст #1
Идентификатор : 5
Формат : UTF-8
Идентификатор кодека : S_TEXT/UTF8
Идентификатор кодека/Информация : UTF-8 Plain Text
Продолжительность : 1 ч. 47 м.
Битрейт : 47 бит/сек
ElementCount : 650
Размер потока : 37,7 Кбайт (0%)
Заголовок : Forced
Язык : Russian
Default : Да
Forced : Да

Текст #2
Идентификатор : 6
Формат : UTF-8
Идентификатор кодека : S_TEXT/UTF8
Идентификатор кодека/Информация : UTF-8 Plain Text
Продолжительность : 1 ч. 42 м.
Битрейт : 70 бит/сек
ElementCount : 1539
Размер потока : 52,7 Кбайт (0%)
Заголовок : Full
Язык : English
Default : Нет
Forced : Нет

Текст #3
Идентификатор : 7
Формат : UTF-8
Идентификатор кодека : S_TEXT/UTF8
Идентификатор кодека/Информация : UTF-8 Plain Text
Продолжительность : 1 ч. 44 м.
Битрейт : 92 бит/сек
ElementCount : 1550
Размер потока : 70,4 Кбайт (0%)
Заголовок : Commentary
Язык : English
Default : Нет
Forced : Нет

Меню
00:00:00.000 : en:Chapter 1
00:04:37.902 : en:Chapter 2
00:14:51.098 : en:Chapter 3
00:25:44.084 : en:Chapter 4
00:30:39.379 : en:Chapter 5
00:35:26.332 : en:Chapter 6
00:40:25.131 : en:Chapter 7
00:44:36.382 : en:Chapter 8
00:47:49.908 : en:Chapter 9
00:51:19.117 : en:Chapter 10
00:56:27.675 : en:Chapter 11
01:04:03.297 : en:Chapter 12
01:08:05.372 : en:Chapter 13
01:14:43.645 : en:Chapter 14
01:20:18.688 : en:Chapter 15
01:29:58.851 : en:Chapter 16
01:32:18.699 : en:Chapter 17
01:34:13.606 : en:Chapter 18
01:39:12.613 : en:Chapter 19
01:43:40.339 : en:Chapter 20



Скачать Мамма MIA! через торрент http://i103.fastpic.ru/big/2018/0330/15/dfaecab1754bedfb6578d4ef64210415.jpg Скачать, смотреть онлайн Мамма MIA! бесплантно в хорошем качестве Описание: Молодая девушка Софи собирается выйти замуж и мечтает о том, чтобы церемония прошла по всем правилам. Она хочет пригласить на ... 5 10 1
Торрент: Зарегистрирован [2018-03-30 07:03] · скачан: 11 раз
Статус: √ проверено
Размер: 49.98 GB
Как cкачать? Как скачать Мамма MIA! через торрент | UTorrent

% Раздел Тема Автор DL S | L
Фильмы [HD 720p, 1080p] (Хороший звук DUB, MVO) [ 4.48 GB ] Мамма MIA! / Mamma Mia! | Лицензия | 1080p, HEVC (10bit Мичман37 Скачать
1 | 0
Ultra HD (UHD: 2K, 4K, 8K) [ 28.08 GB ] Мамма MIA! / Mamma Mia! | Лицензия | 2160p bober100 Скачать
1 | 0
Ultra HD (UHD: 2K, 4K, 8K) [ 55.63 GB ] Мамма MIA! / Mamma Mia! | Лицензия | 2160p sheker187 Скачать
1 | 0

28-11-2019 20:33  


Отключить вcю реклaмy на сайте, в т.ч. и в плеере онлайн просмотра!

    Дорогой пользователь! Огромная просьба, поблагодарите релизера, оцените раздачу и оставьте свои комментарий, если Вы скачали Мамма MIA! через торрент бесплатно!!
    Комментировать посты могут только пользователи прошедшие не сложную регистрацию
    Показать сообщения:    


    Мамма MIA! через торрент
    Скачать бесплатно Мамма MIA!
    Мамма MIA! скачать торрент
    Мамма MIA! смотреть онлайн
    Cкачать фильм Мамма MIA! бесплатно
    Мамма MIA! скачать торрент в хорошем качестве
    Мамма MIA! смотреть онлайн бесплатно в хорошем качестве
    Вы не можете начинать темы
    Вы не можете отвечать на сообщения
    Вы не можете редактировать свои сообщения
    Вы не можете удалять свои сообщения
    Вы не можете голосовать в опросах
    Вы не можете прикреплять файлы к сообщениям
    Вы можете скачивать файлы
    Мамма MIA! / Mamma Mia! [2008, мюзикл, мелодрама, комедия, UHD BDRemux 2160p] Дубляж - [Лицензия] смотреть онлайн, скачать торрент picoco.icu